(Opera) Francois-Andrу Danican Philidor - Sancho Panсa, gouverneur dans l’ile de Barataria / Ф.-A. Д. Филидор – Санчо Панса, губернатор острова Баратария (Ryan Brown; Darren Perry, Meghan McCall, Elizabeth Calleo) - 2011, FLAC (tracks+.cue), lossless


 

[Цитировать]

François-André Danican Philidor - Sancho Pança, gouverneur dans l’île de Barataria / Франсуа-Андре Даникан Филидор – Санчо Панса, губернатор острова Баратария (Ryan Brown; Darren Perry, Meghan McCall, Elizabeth Calleo, Tony Boutté, Karim Sulayman)
Жанр: Opera
Страна-производитель диска: CША
Год издания диска: 2011
Издатель (лейбл): Naxos
Дата записи: 2010
Аудиокодек: FLAC
Тип рипа: tracks+.cue
Битрейт аудио: lossless
Продолжительность: 57:11
Источник: релизер (duckjammy)
Наличие сканов в содержимом раздачи: да
Исполнители:
Sancho Pança - Darren Perry, Baritone,
Thérèse (his wife) / Une Gouvernante - Elizabeth Calleo, Soprano,
Lope Tocho / Le Fermier / Un Barbier - Karim Sulayman, Tenor,
Juliette / La Bergère / Une Paysanne - Meghan McCall, Soprano,
Le Docteur / Don Crispinos / Le Tailleur - Tony Boutté, Tenor,
Torillos / Le Procureur - Eric Christopher Black, Baritone,
Un Paysan - Andrew Sauvageau, Baritone.
Ryan Brown, Conductor,
Opera Lafayette Orchestra.
Recorded on May 25th & 26th, 2010 at Clarice Smith Performing Arts Center, University of Maryland, USA.
An opéra-bouffon in one act
Libretto by Antoine-Alexandre-Henri Poinsinet (1735–1769)
Edition: Le Sr. Hue, Paris

Лог создания рипа

Exact Audio Copy V1.0 beta 3 from 29. August 2011
EAC extraction logfile from 11. July 2013, 6:49
Ryan Brown / Philidor- Sancho Panca
Used drive : PLDS BD-RE DH-8B2SH Adapter: 0 ID: 0
Read mode : Secure
Utilize accurate stream : Yes
Defeat audio cache : Yes
Make use of C2 pointers : No
Read offset correction : 6
Overread into Lead-In and Lead-Out : No
Fill up missing offset samples with silence : Yes
Delete leading and trailing silent blocks : No
Null samples used in CRC calculations : Yes
Used interface : Native Win32 interface for Win NT & 2000
Gap handling : Not detected, thus appended to previous track
Used output format : User Defined Encoder
Selected bitrate : 768 kBit/s
Quality : High
Add ID3 tag : No
Command line compressor : C:\Program Files (x86)\Exact Audio Copy\FLAC\FLAC.EXE
Additional command line options : -6 -V -T "ARTIST=%artist%" -T "TITLE=%title%" -T "ALBUM=%albumtitle%" -T "DATE=%year%" -T "TRACKNUMBER=%tracknr%" -T "GENRE=%genre%" -T "COMMENT=%comment%" -T "BAND=%albuminterpret%" -T "ALBUMARTIST=%albuminterpret%" -T "COMPOSER=%composer%" %haslyrics%--tag-from-file=LYRICS="%lyricsfile%"%haslyrics% -T "DISCNUMBER=%cdnumber%" -T "TOTALDISCS=%totalcds%" -T "TOTALTRACKS=%numtracks%" %hascover%--picture="%coverfile%"%hascover% %source% -o %dest%
TOC of the extracted CD
Track | Start | Length | Start sector | End sector
---------------------------------------------------------
1 | 0:00.00 | 2:09.50 | 0 | 9724
2 | 2:09.50 | 4:32.16 | 9725 | 30140
3 | 6:41.66 | 2:56.61 | 30141 | 43401
4 | 9:38.52 | 4:32.47 | 43402 | 63848
5 | 14:11.24 | 2:20.13 | 63849 | 74361
6 | 16:31.37 | 3:51.22 | 74362 | 91708
7 | 20:22.59 | 2:41.07 | 91709 | 103790
8 | 23:03.66 | 2:59.02 | 103791 | 117217
9 | 26:02.68 | 2:27.29 | 117218 | 128271
10 | 28:30.22 | 4:24.55 | 128272 | 148126
11 | 32:55.02 | 1:54.27 | 148127 | 156703
12 | 34:49.29 | 2:25.50 | 156704 | 167628
13 | 37:15.04 | 1:25.74 | 167629 | 174077
14 | 38:41.03 | 1:05.10 | 174078 | 178962
15 | 39:46.13 | 0:38.19 | 178963 | 181831
16 | 40:24.32 | 2:28.52 | 181832 | 192983
17 | 42:53.09 | 4:25.44 | 192984 | 212902
18 | 47:18.53 | 1:17.58 | 212903 | 218735
19 | 48:36.36 | 1:06.10 | 218736 | 223695
20 | 49:42.46 | 7:26.29 | 223696 | 257174
Track 1
Filename C:\EAC\01 Je fallais voir au village (Therese).wav
Peak level 84.3 %
Extraction speed 1.9 X
Track quality 100.0 %
Test CRC 25E980C9
Copy CRC 25E980C9
Accurately ripped (confidence 1) [156F0C02] (AR v1)
Copy OK
Track 2
Filename C:\EAC\02 Dans ces grand chateaux (Lope Tocho).wav
Peak level 57.5 %
Extraction speed 1.8 X
Track quality 99.9 %
Test CRC 920A771C
Copy CRC 920A771C
Accurately ripped (confidence 1) [4D3FE4B3] (AR v1)
Copy OK
Track 3
Filename C:\EAC\03 Est-ce lui (Therese, Lope Tocho, Sancho Panca).wav
Peak level 100.0 %
Extraction speed 2.4 X
Track quality 100.0 %
Test CRC 70B32004
Copy CRC 70B32004
Accurately ripped (confidence 1) [7B37A4A1] (AR v1)
Copy OK
Track 4
Filename C:\EAC\04 Je veux que Sancha brille (Sancho Panca).wav
Peak level 79.8 %
Extraction speed 2.7 X
Track quality 100.0 %
Test CRC F58D0229
Copy CRC F58D0229
Accurately ripped (confidence 1) [1353DAC3] (AR v1)
Copy OK
Track 5
Filename C:\EAC\05 Chantons, chantons la bienvenue (Ensemble).wav
Peak level 81.1 %
Extraction speed 2.6 X
Track quality 100.0 %
Test CRC 23801865
Copy CRC 23801865
Accurately ripped (confidence 1) [7D77217F] (AR v1)
Copy OK
Track 6
Filename C:\EAC\06 Je vais seulette (Juliette).wav
Peak level 95.0 %
Extraction speed 3.0 X
Track quality 100.0 %
Test CRC 059D5D06
Copy CRC 059D5D06
Accurately ripped (confidence 1) [D3661DBD] (AR v1)
Copy OK
Track 7
Filename C:\EAC\07 Vous serez ma Dulcinee (Sancho Panca).wav
Peak level 75.2 %
Extraction speed 2.9 X
Track quality 100.0 %
Test CRC 204E0F9D
Copy CRC 204E0F9D
Accurately ripped (confidence 1) [3A385DA8] (AR v1)
Copy OK
Track 8
Filename C:\EAC\08 Ne viens pas (Therese).wav
Peak level 100.0 %
Extraction speed 3.1 X
Track quality 100.0 %
Test CRC 2BB5C29D
Copy CRC 2BB5C29D
Accurately ripped (confidence 1) [3DB82184] (AR v1)
Copy OK
Track 9
Filename C:\EAC\09 Une, deux (Don Crispinos, Sancho Panca).wav
Peak level 93.0 %
Extraction speed 2.0 X
Track quality 99.9 %
Test CRC 9960755C
Copy CRC 9960755C
Accurately ripped (confidence 1) [78149EF6] (AR v1)
Copy OK
Track 10
Filename C:\EAC\10 Je suis comme une pauvre boule (Sancho Panca).wav
Peak level 62.6 %
Extraction speed 3.5 X
Track quality 100.0 %
Test CRC E2728F54
Copy CRC E2728F54
Accurately ripped (confidence 1) [CE037943] (AR v1)
Copy OK
Track 11
Filename C:\EAC\11 Je ne suis qu'une bergere (La Bergere).wav
Peak level 100.0 %
Extraction speed 3.1 X
Track quality 100.0 %
Test CRC F554008E
Copy CRC F554008E
Accurately ripped (confidence 1) [1FA572D0] (AR v1)
Copy OK
Track 12
Filename C:\EAC\12 Je m'en revenais chantant (Le Fermier).wav
Peak level 50.6 %
Extraction speed 3.3 X
Track quality 100.0 %
Test CRC 05560DB6
Copy CRC 05560DB6
Accurately ripped (confidence 1) [D83B592E] (AR v1)
Copy OK
Track 13
Filename C:\EAC\13 Tu me le rendras (Le Fermier, La Bergere).wav
Peak level 91.3 %
Extraction speed 1.6 X
Track quality 99.8 %
Test CRC FEEC50EE
Copy CRC FEEC50EE
Accurately ripped (confidence 1) [89370D51] (AR v1)
Copy OK
Track 14
Filename C:\EAC\14 Ami, Sancho (Le Docteur).wav
Peak level 58.4 %
Extraction speed 2.8 X
Track quality 100.0 %
Test CRC AFDEF903
Copy CRC AFDEF903
Accurately ripped (confidence 1) [47BABE10] (AR v1)
Copy OK
Track 15
Filename C:\EAC\15 Symphonie- Fanfare.wav
Peak level 41.5 %
Extraction speed 2.2 X
Track quality 100.0 %
Test CRC 19BAC27F
Copy CRC 19BAC27F
Accurately ripped (confidence 1) [49B70716] (AR v1)
Copy OK
Track 16
Filename C:\EAC\16 La Soupe rend flegmatique (Le Docteur, Sancho Panca).wav
Peak level 65.9 %
Extraction speed 2.3 X
Track quality 99.9 %
Test CRC 32BE5010
Copy CRC 32BE5010
Accurately ripped (confidence 1) [38613D5B] (AR v1)
Copy OK
Track 17
Filename C:\EAC\17 Il sont partis (Sancho Panca).wav
Peak level 67.6 %
Extraction speed 3.0 X
Track quality 99.9 %
Test CRC A38DBEC7
Copy CRC A38DBEC7
Accurately ripped (confidence 1) [8722ABB0] (AR v1)
Copy OK
Track 18
Filename C:\EAC\18 Mais, que vois-je (Sancho Panca).wav
Peak level 69.3 %
Extraction speed 3.1 X
Track quality 100.0 %
Test CRC D59CAA44
Copy CRC D59CAA44
Accurately ripped (confidence 1) [65831F0B] (AR v1)
Copy OK
Track 19
Filename C:\EAC\19 Prenez vite cette lance (Torillos, Sancho Panca, Therese, Lope Tocho).wav
Peak level 75.1 %
Extraction speed 3.0 X
Track quality 100.0 %
Test CRC 9893D7A4
Copy CRC 9893D7A4
Accurately ripped (confidence 1) [F1468CA1] (AR v1)
Copy OK
Track 20
Filename C:\EAC\20 Vaudeville- Je vais revoir ma chere metairie (Ensemble).wav
Peak level 90.9 %
Extraction speed 4.4 X
Track quality 100.0 %
Test CRC 12AA9B61
Copy CRC 12AA9B61
Accurately ripped (confidence 1) [0ACBF7ED] (AR v1)
Copy OK
All tracks accurately ripped
No errors occurred
End of status report
==== Log checksum D6609A573C25EE092C05DA400A95542DF9371EEA61D0C7266AD587CF22C0A507 ====

Содержание индексной карты (.CUE)

REM GENRE Opera
REM DATE 2011
REM DISCID 210D6514
REM COMMENT "ExactAudioCopy v1.0b3"
PERFORMER "Ryan Brown"
TITLE "Philidor- Sancho Panca"
FILE "01 Je fallais voir au village (Therese).flac" WAVE
TRACK 01 AUDIO
TITLE "Je fallais voir au village (Therese)"
PERFORMER "Ryan Brown"
INDEX 01 00:00:00
FILE "02 Dans ces grand chateaux (Lope Tocho).flac" WAVE
TRACK 02 AUDIO
TITLE "Dans ces grand chateaux (Lope Tocho)"
PERFORMER "Ryan Brown"
INDEX 01 00:00:00
FILE "03 Est-ce lui (Therese, Lope Tocho, Sancho Panca).flac" WAVE
TRACK 03 AUDIO
TITLE "Est-ce lui? (Therese, Lope Tocho, Sancho Panca)"
PERFORMER "Ryan Brown"
INDEX 01 00:00:00
FILE "04 Je veux que Sancha brille (Sancho Panca).flac" WAVE
TRACK 04 AUDIO
TITLE "Je veux que Sancha brille (Sancho Panca)"
PERFORMER "Ryan Brown"
INDEX 01 00:00:00
FILE "05 Chantons, chantons la bienvenue (Ensemble).flac" WAVE
TRACK 05 AUDIO
TITLE "Chantons, chantons la bienvenue (Ensemble)"
PERFORMER "Ryan Brown"
INDEX 01 00:00:00
FILE "06 Je vais seulette (Juliette).flac" WAVE
TRACK 06 AUDIO
TITLE "Je vais seulette (Juliette)"
PERFORMER "Ryan Brown"
INDEX 01 00:00:00
FILE "07 Vous serez ma Dulcinee (Sancho Panca).flac" WAVE
TRACK 07 AUDIO
TITLE "Vous serez ma Dulcinee (Sancho Panca)"
PERFORMER "Ryan Brown"
INDEX 01 00:00:00
FILE "08 Ne viens pas (Therese).flac" WAVE
TRACK 08 AUDIO
TITLE "Ne viens pas (Therese)"
PERFORMER "Ryan Brown"
INDEX 01 00:00:00
FILE "09 Une, deux (Don Crispinos, Sancho Panca).flac" WAVE
TRACK 09 AUDIO
TITLE "Une, deux (Don Crispinos, Sancho Panca)"
PERFORMER "Ryan Brown"
INDEX 01 00:00:00
FILE "10 Je suis comme une pauvre boule (Sancho Panca).flac" WAVE
TRACK 10 AUDIO
TITLE "Je suis comme une pauvre boule (Sancho Panca)"
PERFORMER "Ryan Brown"
INDEX 01 00:00:00
FILE "11 Je ne suis qu'une bergere (La Bergere).flac" WAVE
TRACK 11 AUDIO
TITLE "Je ne suis qu'une bergere (La Bergere)"
PERFORMER "Ryan Brown"
INDEX 01 00:00:00
FILE "12 Je m'en revenais chantant (Le Fermier).flac" WAVE
TRACK 12 AUDIO
TITLE "Je m'en revenais chantant (Le Fermier)"
PERFORMER "Ryan Brown"
INDEX 01 00:00:00
FILE "13 Tu me le rendras (Le Fermier, La Bergere).flac" WAVE
TRACK 13 AUDIO
TITLE "Tu me le rendras (Le Fermier, La Bergere)"
PERFORMER "Ryan Brown"
INDEX 01 00:00:00
FILE "14 Ami, Sancho (Le Docteur).flac" WAVE
TRACK 14 AUDIO
TITLE "Ami, Sancho (Le Docteur)"
PERFORMER "Ryan Brown"
INDEX 01 00:00:00
FILE "15 Symphonie- Fanfare.flac" WAVE
TRACK 15 AUDIO
TITLE "Symphonie: Fanfare"
PERFORMER "Ryan Brown"
INDEX 01 00:00:00
FILE "16 La Soupe rend flegmatique (Le Docteur, Sancho Panca).flac" WAVE
TRACK 16 AUDIO
TITLE "La Soupe rend flegmatique (Le Docteur, Sancho Panca)"
PERFORMER "Ryan Brown"
INDEX 01 00:00:00
FILE "17 Il sont partis (Sancho Panca).flac" WAVE
TRACK 17 AUDIO
TITLE "Il sont partis (Sancho Panca)"
PERFORMER "Ryan Brown"
INDEX 01 00:00:00
FILE "18 Mais, que vois-je (Sancho Panca).flac" WAVE
TRACK 18 AUDIO
TITLE "Mais, que vois-je (Sancho Panca)"
PERFORMER "Ryan Brown"
INDEX 01 00:00:00
FILE "19 Prenez vite cette lance (Torillos, Sancho Panca, Therese, Lope Tocho).flac" WAVE
TRACK 19 AUDIO
TITLE "Prenez vite cette lance (Torillos, Sancho Panca, Therese, Lope Tocho)"
PERFORMER "Ryan Brown"
INDEX 01 00:00:00
FILE "20 Vaudeville- Je vais revoir ma chere metairie (Ensemble).flac" WAVE
TRACK 20 AUDIO
TITLE "Vaudeville: Je vais revoir ma chere metairie (Ensemble)"
PERFORMER "Ryan Brown"
INDEX 01 00:00:00

Треклист

1. Je fallais voir au village (Therese) 00:02:12
2. Dans ces grand chateaux (Lope Tocho) 00:04:32
3. Est - ce lui (Therese, Lope Tocho, Sancho Panca) 00:02:56
4. Je veux que Sancha brille (Sancho Panca) 00:04:33
5. Chantons, chantons la bienvenue (Ensemble) 00:02:19
6. Je vais seulette (Juliette) 00:03:52
7. Vous serez ma Dulcinee (Sancho Panca) 00:02:41
8. Ne viens pas (Therese) 00:02:59
9. Une, deux (Don Crispinos, Sancho Panca) 00:02:27
10. Je suis comme une pauvre boule (Sancho Panca) 00:04:25
11. Je ne suis qu'une bergere (La Bergere) 00:01:54
12. Je m'en revenais chantant (Le Fermier) 00:02:26
13. Tu me le rendras (Le Fermier, La Bergere) 00:01:26
14. Ami, Sancho (Le Docteur) 00:01:05
15. Symphonie: Fanfare 00:00:38
16. La Soupe rend flegmatique (Le Docteur, Sancho Panca) 00:02:29
17. Il sont partis (Sancho Panca) 00:04:26
18. Mais, que vois - je (Sancho Panca) 00:01:18
19. Prenez vite cette lance (Torillos, Sancho Panca, Therese, Lope Tocho) 00:01:06
20. Vaudeville: Je vais revoir ma chere metairie (Ensemble) 00:07:26



Показать сообщения:    

Текущее время: 08-Дек 23:11

Часовой пояс: UTC + 3


Вы не можете начинать темы
Вы не можете отвечать на сообщения
Вы не можете редактировать свои сообщения
Вы не можете удалять свои сообщения
Вы не можете голосовать в опросах
Вы не можете прикреплять файлы к сообщениям
Вы не можете скачивать файлы