[TR24][OF] Maria Callas - Callas Sings Verdi Arias (Otello, Don Carlo, Aroldo) [1964] - (Maria Callas, Orchestre de la Société des Concerts du Conservatoire, Nicola Rescigno) - 2014 (Classical, Opera)


Статистика раздачи [Обновить пиров]
Размер:  787 MB   |    Зарегистрирован:  8 месяцев 18 дней   |    Скачан:  1 раз

Полного источника не было: 7 месяцев 26 дней

 
   
 
 
 

[Цитировать]

Callas Sings Verdi Arias
Maria Callas · Orchestre de la Société des Concerts du Conservatoire · Nicola Rescigno
- Год издания: 2014
Жанр: Classical, Opera
Издатель (лейбл): Warner Classics
Продолжительность: 00:39:56
Наличие сканов: Covers, Digital Booklet
- -
Giuseppe Verdi (1813-1901)
Otello
01. Act 4: "Mia madre aveva una povera ancella" (Desdemona) (5:08)
02. Act 4: "Piangea cantando" (Willow Song) (Desdemona) (7:15)
03. Act 4: "Ave Maria" (Desdemona) (4:49)
Aroldo
04. Act 1: "Ciel, ch'io respiri!...Salvami, salvami tu gran dio" (Mina) (3:25)
Don Carlo
05. Act 3: "O don fatale" (Élisabeth) (4:44)
Aroldo
06. Act 2: "Oh cielo! Ove son io?" (Mina) (9:43)
Don Carlo
07. Act 2: "Non pianger, mia compagna" (Élisabeth) (4:52)
-Maria Callas, soprano
Orchestre de la Société des Concerts du Conservatoire
Nicola Rescigno, conductor
Recorded: 16–17, 27, 30.XII.1963, 6.I, 20–21.II & 10, 22.IV.1964, Salle Wagram, Paris
-Контейнер: FLAC (*.flac)
Тип рипа: tracks
Разрядность: 24bit / 96kHz
Количество каналов: 2.0
-О релизе
Only one of the roles represented in this Verdi recital figured in Callas’s stage repertoire: Elisabetta in Don Carlo, which she performed at La Scala in 1954. From the same opera she also sings Eboli’s mezzo-soprano showpiece “O don fatale”, a feature of her recitals in the early 1960s. An adventurous choice are Mina’s arias from the rarely-heard Aroldo (Verdi’s reworking of Stiffelio): ‘The vivid pronunciation of the words, the burning emotion conveyed by tone-color, and the powerful and eloquent sense of rhythm, are all memorable. So is the fearless quality of Callas’s singing,’ said Gramophone. When it came to Desdemona’s scene from Act IV of Otello, the critic wrote: ‘Verdi’s music is brought to life as by no other artist. Her voice is in fine state: very beautiful, and drawing a full glorious line.’
Gramophone. When it came to Desdemona’s scene from Act IV of Otello, the critic wrote: ‘Verdi’s music is brought to life as by no other artist. Her voice is in fine state: very beautiful, and drawing a full glorious line.’
Producer: Michel Glotz
Recording engineer: Paul Vavasseur

ОтчётыДинамический диапазон

foobar2000 1.2.2 / Dynamic Range Meter 1.1.1
log date: 2015-04-11 18:54:09
--------------------------------------------------------------------------------
Analyzed: Maria Callas, Orchestre de la Société des Concerts du Conservatoire, Nicola Rescigno / Callas sings Verdi Arias (1964)
--------------------------------------------------------------------------------
DR Peak RMS Duration Track
--------------------------------------------------------------------------------
DR13 -6.22 dB -25.75 dB 5:08 ?-Otello:Act 4: "Mia madre aveva una povera ancella" (Desdemona)
DR12 -1.70 dB -20.20 dB 7:15 ?-Otello:Act 4: "Piangea cantando" (Willow Song) (Desdemona)
DR11 -4.44 dB -22.29 dB 4:49 ?-Otello:Act 4: "Ave Maria" (Desdemona)
DR10 -1.55 dB -16.25 dB 3:25 ?-Aroldo:Act 1: "Ciel, ch'io respiri!...Salvami, salvami tu gran dio" (Mina)
DR11 -0.30 dB -15.56 dB 4:44 ?-Don Carlo:Act 3: "O don fatale" (Élisabeth)
DR10 -1.21 dB -17.36 dB 9:43 ?-Aroldo:Act 2: "Oh cielo! Ove son io?" (Mina)
DR9 -3.78 dB -18.12 dB 4:52 ?-Don Carlo:Act 2: "Non pianger, mia compagna" (Élisabeth)
--------------------------------------------------------------------------------
Number of tracks: 7
Official DR value: DR11
Samplerate: 96000 Hz
Channels: 2
Bits per sample: 24
Bitrate: 2751 kbps
Codec: FLAC
================================================================================

Скриншот спектра частот

Доп. информация

При скачивании, если необходимо, переименуйте папку, в которой будет находиться альбомБольшая просьба к скачавшим поддерживать раздачу! Помогайте другим, ведь вам тоже может понадобиться помощь!Не забываем говорить "Спасибо"!Комментарии приветствуются!
Maria Callas Hi-Res
[teatrix.ru].t20924.torrent 
Торрент: Зарегистрирован [ 2016-03-20 00:58 ] · A85DD62CF29FF009C11C238AF8BA17CCA728B790

Скачать .torrent

Скачать

17 KB

Статус: проверено
Скачан: 1 раз
Размер: 787 MB
terms.php



Быстрый ответ

Имя:

      
Для отправки сообщений необходимо включить JavaScript
Показать сообщения:    

Текущее время: 07-Дек 15:34

Часовой пояс: UTC + 3


Вы можете начинать темы
Вы можете отвечать на сообщения
Вы не можете редактировать свои сообщения
Вы не можете удалять свои сообщения
Вы не можете голосовать в опросах
Вы не можете прикреплять файлы к сообщениям
Вы можете скачивать файлы