[TR24][OF] Antonio Vivaldi - I concerti dell'addio (Fabio Biondi, Europa Galante) - 2015 (Classical, Violin)


Статистика раздачи [Обновить пиров]
Размер:  1.53 GB   |    Зарегистрирован:  8 месяцев 20 дней   |    Скачан:  0 раз

Полного источника не было: Никогда

 
   
 
 
 

[Цитировать]

Antonio Vivaldi
I concerti dell'addio
Fabio Biondi · Europa Galante
-Год издания: 2015 | Жанр: Classical, Violin
Издатель: Glossa | Продолжительность: 01:19:56
Наличие сканов: Sleeve, Digital Booklet- -Контейнер: FLAC (*.flac) | Тип рипа: tracks
Разрядность: 24bit / 88.2kHz | Количество каналов: 2.0-Fabio Biondi - solo violin & directionEuropa Galante - chamber
Recorded in Badia Cavana (Abbazia di San Basilide), Italy, on 18-20 June 2014
-

ТреклистAntonio Vivaldi (1678-1741)
Violin Concerto in B Minor, RV 390
01.I. Andante molto (1:02)
02. II. Allegro non molto (5:16)
03. III. Larghetto (2:37)
04. IV. Allegro (3:41)
Violin Concerto in E Minor, RV 273
05. I. Allegro non molto (4:21)
06. II. Largo (3:42)
07. III. Allegro (3:43)
Violin Concerto in B-Flat Major, RV 371
08. I. Allegro ma poco (4:59)
09. II. Larghetto (4:35)
10. III. Allegro (3:57)
Violin Concerto in C Major, RV 189
11. I. Larghetto (0:31)
12. II. Allegro non molto e pianissimo (5:01)
13. II. Largo (6:04)
14. III. Allegro molto (4:15)
Violin Concerto in B-Flat Major, RV 367
15. I. Allegro ma poco poco (6:01)
16. II. Andante ma poco (3:21)
17. III. Allegro (3:54)
Violin Concerto in F Major, RV 286, "Concerto per la solennita di San Lorenzo"
18. I. Largo molto e spiccato (0:29)
19. II. (Allegro moderato) (4:46)
20. II. Largo (2:55)
21. III. Allegro non molto (4:44)

О релизе


Since the early 1990s, Antonio Vivaldi and Fabio Biondi have become inseparable. In his latest recording for Glossa, the latter offers further proof of the astonishing imaginative powers of Vivaldi as a composer of violin concertos, which are matched by Biondi s own dynamic and cultured virtuosity as violinist (and director). With these 'Farewell' Concertos Biondi turns to works written by a Vivaldi very near the end of his life as he travelled to Vienna in a desperate search for creative opportunities. Where Biondi s recent 'Il Diario di Chiara' release saw a late Vivaldi surrounded by colleagues and successors at the Pietà in Venice, 'I concerti dell addio' sees him in a Vienna in mourning for its recently-deceased emperor and more attuned to the now-fashionable galante style than to that of the Red Priest, however brilliant and ebullient Vivaldi s compositional spirit continued to be. The six concertos on this disc are all drawn from a collection sold in 1741 very cheaply it seems to the count Vinciguerra Collalto - today kept in Brno, and bear witness to Vivaldi s late style as it headed in the direction of Tartini and Locatelli. Biondi s selection of concertos provides him full scope to portray the vivid and masterfully-conceived imagery, a compendium of violin techniques and the opportunities for improvisation implicit in Vivaldi s maturity.

ОтчётыДинамический диапазон

foobar2000 1.2.2 / Dynamic Range Meter 1.1.1
log date: 2015-04-13 14:07:52
--------------------------------------------------------------------------------
Analyzed: Fabio Biondi, Europe Galante / Vivaldi: I concerti dell'addio
--------------------------------------------------------------------------------
DR Peak RMS Duration Track
--------------------------------------------------------------------------------
DR11 -1.19 dB -18.10 dB 1:02 ?-Violin Concerto in B Minor, RV 390: I. Andante molto
DR12 -0.28 dB -16.56 dB 5:16 ?-Violin Concerto in B Minor, RV 390: II. Allegro non molto
DR14 -6.73 dB -26.87 dB 2:37 ?-Violin Concerto in B Minor, RV 390: III. Larghetto
DR13 0.00 dB -16.38 dB 3:41 ?-Violin Concerto in B Minor, RV 390: IV. Allegro
DR13 0.00 dB -17.47 dB 4:21 ?-Violin Concerto in E Minor, RV 273: I. Allegro non molto
DR14 -1.93 dB -21.61 dB 3:42 ?-Violin Concerto in E Minor, RV 273: II. Largo
DR12 -0.39 dB -16.17 dB 3:43 ?-Violin Concerto in E Minor, RV 273: III. Allegro
DR13 -0.70 dB -19.01 dB 4:59 ?-Violin Concerto in B-Flat Major, RV 371: I. Allegro ma poco
DR12 -3.48 dB -21.74 dB 4:35 ?-Violin Concerto in B-Flat Major, RV 371: II. Larghetto
DR12 -1.32 dB -17.40 dB 3:57 ?-Violin Concerto in B-Flat Major, RV 371: III. Allegro
DR11 -1.40 dB -15.87 dB 0:31 ?-Violin Concerto in C Major, RV 189: I. Larghetto
DR13 -0.59 dB -18.24 dB 5:01 ?-Violin Concerto in C Major, RV 189: II. Allegro non molto e pianissimo
DR15 -3.43 dB -25.53 dB 6:04 ?-Violin Concerto in C Major, RV 189: II. Largo
DR13 -0.24 dB -17.20 dB 4:15 ?-Violin Concerto in C Major, RV 189: III. Allegro molto
DR13 -1.16 dB -19.28 dB 6:01 ?-Violin Concerto in B-Flat Major, RV 367: I. Allegro ma poco poco
DR13 -6.88 dB -25.02 dB 3:21 ?-Violin Concerto in B-Flat Major, RV 367: II. Andante ma poco
DR13 -0.25 dB -17.22 dB 3:54 ?-Violin Concerto in B-Flat Major, RV 367: III. Allegro
DR12 -2.20 dB -18.62 dB 0:29 ?-Violin Concerto in F Major, RV 286, "Concerto per la solennita di San Lorenzo": I. Largo molto e spiccato
DR13 -0.80 dB -18.17 dB 4:46 ?-Violin Concerto in F Major, RV 286, "Concerto per la solennita di San Lorenzo": II. (Allegro moderato)
DR13 -0.57 dB -19.60 dB 2:55 ?-Violin Concerto in F Major, RV 286, "Concerto per la solennita di San Lorenzo": II. Largo
DR13 -0.73 dB -17.39 dB 4:44 ?-Violin Concerto in F Major, RV 286, "Concerto per la solennita di San Lorenzo": III. Allegro non molto
--------------------------------------------------------------------------------
Number of tracks: 21
Official DR value: DR13
Samplerate: 88200 Hz
Channels: 2
Bits per sample: 24
Bitrate: 2840 kbps
Codec: FLAC
================================================================================

Скриншот спектра частот

Доп. информация

При скачивании, если необходимо, переименуйте папку, в которой будет находиться альбомБольшая просьба к скачавшим поддерживать раздачу! Помогайте другим, ведь вам тоже может понадобиться помощь!Не забываем говорить "Спасибо"!Комментарии приветствуются!
[teatrix.ru].t20925.torrent 
Торрент: Зарегистрирован [ 2016-03-20 00:58 ] · 69DB9701133C505AC29612C959B6A4F91C9392D6

Скачать .torrent

Скачать

18 KB

Статус: проверено
Скачан: 0 раз
Размер: 1.53 GB
terms.php



Быстрый ответ

Имя:

      
Для отправки сообщений необходимо включить JavaScript
Показать сообщения:    

Текущее время: 09-Дек 20:28

Часовой пояс: UTC + 3


Вы можете начинать темы
Вы можете отвечать на сообщения
Вы не можете редактировать свои сообщения
Вы не можете удалять свои сообщения
Вы не можете голосовать в опросах
Вы не можете прикреплять файлы к сообщениям
Вы можете скачивать файлы