(Operetta) Operetten Melodien, Excerpts - Kunneke, Der Vetter aus Dingsda (Koth, Hauer, Hoppe - Mattes) • Kollo, Wie Einst Im Mai (Schirrmacher, Lins - Kudritzki) - 2003, APE (image+.cue) lossless


 

[Цитировать]

Eduard Künneke - Der Vetter aus Dingsda • Walter & Willi Kollo - Wie Einst Im Mai
Жанр: Operetta
Страна-производитель диска: Germany
Год издания диска: 2003
Издатель (лейбл): Emi Classics
Номер по каталогу: 7243 5 75816 2 2
Дата записи: 1961-1965
Аудиокодек: APE
Тип рипа: image+.cue
Битрейт аудио: lossless
Продолжительность: 53'21
Источник: собственный рип
Наличие сканов в содержимом раздачи: да
Треклист/Исполнители:
Eduard Künneke - Der Vetter aus Dingsda, Op. 13
1. Strahlender Mond
2. O werter Verehrter...Uberleg' dir's
3. Rein wird gemacht...Onkel und Tante
4. Nicht wahr, hier ist's wie im Zuberreich
5. Ich bin nur ein armer Wandergesell
6. Ganz unverhofft kommt oft das Glück
7. Weisst du noch
8. Ich hab' an sie nur stets gedacht...Mann, o Mann
9. Sieben Jahre lebt' ich in Batavia...Mägdelein, zart und fein
Erika Köth (Soprano)
Karl-Bernhard Hauer (Bass)
Heinz Hoppe (Tenor),
Ursula Schade (Alto)
Christine Görner (Soprano)
Jürgen Förster (Tenor)
Graunke Symphony Orchestra
Conductor: Willy MattesWalter Kollo - Wie einst in Mai
10. Prelude / Kinder, ganz Berlin ist hier...Wir fahren mit der Eisenbahn
11. Die Arbeit ist 'ne Bürde...Hoppla Anneken
12. Von nun an wird mein Lippenpaar...Denk' nur
13. Es jeht doch nischt über Berlin...Kinder, ach wie ist det fein
14. Na, denn Prost...Ach ich kann ja nicht anders
15. Wir fahren mit der Untergrund...Grossmama
16. Heut' Nacht wird lange Nacht gemacht...Die Männer
17. Heut' ist der Weg nicht weit...Unter'n Linden, unter'n Linden
Günther Schwerkolt (Voice)
Ursula Schirrmacher (Soprano)
Brigitte Mira (Voice),
Lucie Klaar (Voice)
Willi Rose (Voice)
Heinz Maria Lins (Bass Baritone)
Die Sunnies und die Cornels
FFB Orchestra
Conductor: Horst Kudritzki

Лог создания рипа

Exact Audio Copy V1.0 beta 3 from 29. August 2011
EAC extraction logfile from 8. January 2015, 18:12
Künneke • Kollo / Der vetter aus Dingsda • Es war einst im Mai
Used drive : TS8XDVDSTRANSCEND Adapter: 1 ID: 1
Read mode : Secure
Utilize accurate stream : Yes
Defeat audio cache : Yes
Make use of C2 pointers : No
Read offset correction : 6
Overread into Lead-In and Lead-Out : No
Fill up missing offset samples with silence : Yes
Delete leading and trailing silent blocks : No
Null samples used in CRC calculations : Yes
Used interface : Native Win32 interface for Win NT & 2000
Used output format : Monkey's Audio Lossless Encoder
Selected bitrate : High Lossless Compression
Quality : High
Add ID3 tag : Yes
Command line compressor : C:\Program Files (x86)\Exact Audio Copy\MAC\MAC.exe
TOC of the extracted CD
Track | Start | Length | Start sector | End sector
---------------------------------------------------------
1 | 0:00.00 | 4:08.43 | 0 | 18642
2 | 4:08.43 | 2:48.30 | 18643 | 31272
3 | 6:56.73 | 0:45.02 | 31273 | 34649
4 | 7:42.00 | 1:54.15 | 34650 | 43214
5 | 9:36.15 | 3:42.40 | 43215 | 59904
6 | 13:18.55 | 1:52.08 | 59905 | 68312
7 | 15:10.63 | 2:59.02 | 68313 | 81739
8 | 18:09.65 | 1:00.25 | 81740 | 86264
9 | 19:10.15 | 1:57.10 | 86265 | 95049
10 | 21:07.25 | 3:38.23 | 95050 | 111422
11 | 24:45.48 | 6:23.00 | 111423 | 140147
12 | 31:08.48 | 4:10.52 | 140148 | 158949
13 | 35:19.25 | 2:25.05 | 158950 | 169829
14 | 37:44.30 | 3:59.25 | 169830 | 187779
15 | 41:43.55 | 4:47.15 | 187780 | 209319
16 | 46:30.70 | 2:32.38 | 209320 | 220757
17 | 49:03.33 | 4:15.22 | 220758 | 239904
Range status and errors
Selected range
Filename D:\EAC\Künneke • Kollo - Der vetter aus Dingsda • Es war einst im Mai.wav
Peak level 99.2 %
Extraction speed 3.1 X
Range quality 100.0 %
Test CRC FC346A28
Copy CRC FC346A28
Copy OK
No errors occurred
AccurateRip summary
Track 1 not present in database
Track 2 not present in database
Track 3 not present in database
Track 4 not present in database
Track 5 not present in database
Track 6 not present in database
Track 7 not present in database
Track 8 not present in database
Track 9 not present in database
Track 10 not present in database
Track 11 not present in database
Track 12 not present in database
Track 13 not present in database
Track 14 not present in database
Track 15 not present in database
Track 16 not present in database
Track 17 not present in database
None of the tracks are present in the AccurateRip database
End of status report
---- CUETools DB Plugin V2.1.3
[CTDB TOCID: SiZeCip9HVbtgP1JVlMt7TQ81ZI-] found, Submit result: unrecognized or virtual drive
[407f2424] (1/1) Accurately ripped
==== Log checksum 2F64E8660503F92C85552A9181D80EB2D8B3EAB2773CA766B24EF911874CF680 ====

Содержание индексной карты (.CUE)

REM GENRE Operetta
REM DATE 2002
REM DISCID E00C7E11
REM COMMENT "ExactAudioCopy v1.0b3"
CATALOG 0724357581622
PERFORMER "Künneke • Kollo"
TITLE "Der vetter aus Dingsda • Es war einst im Mai"
FILE "Künneke • Kollo - Der vetter aus Dingsda • Es war einst im Mai.ape" WAVE
TRACK 01 AUDIO
TITLE "Act 1: Strahlender Mund"
PERFORMER "Künneke"
ISRC DEA340200958
INDEX 01 00:00:00
TRACK 02 AUDIO
TITLE "O werter Verehrter / Überleg'dir's"
PERFORMER "Künneke"
ISRC DEA340200959
INDEX 01 04:08:43
TRACK 03 AUDIO
TITLE "Rein werd gemacht / Onkel und Tante"
PERFORMER "Künneke"
ISRC DEA340200957
INDEX 01 06:56:73
TRACK 04 AUDIO
TITLE "Nicht wahr, hier ist's wie in Zauberreich / Ich trink'auf deinLachendes Augen..."
PERFORMER "Künneke"
ISRC DEA340200960
INDEX 01 07:42:00
TRACK 05 AUDIO
TITLE "Doch sag', wie soll ich dir danken / Ich bin nur ein armer Wandergesell"
PERFORMER "Künneke"
ISRC DEA340200960
INDEX 01 09:36:15
TRACK 06 AUDIO
TITLE "Act 2: Ganz unverhofft kommt oft das Glück / Der Roderich"
PERFORMER "Künneke"
ISRC DEA340200962
INDEX 01 13:18:55
TRACK 07 AUDIO
TITLE "Weisst du noch, wie wir als Kinder gespielt / Kindchen, du musst nicht so sch..."
PERFORMER "Künneke"
ISRC DEA340200962
INDEX 01 15:10:63
TRACK 08 AUDIO
TITLE "Ich hab' an sie nur stets gedacht / Mann, o Mann"
PERFORMER "Künneke"
ISRC DEA340200964
INDEX 01 18:09:65
TRACK 09 AUDIO
TITLE "Sieben Jahre lebt' ich in Batavia / Mägdelein, zart und fein"
PERFORMER "Künneke"
ISRC DEA340200965
INDEX 01 19:10:15
TRACK 10 AUDIO
TITLE "Einleitung: Kinder, ganz Berlin ist hier / Da hinten raucht was"
PERFORMER "Kollo"
ISRC DEA340200966
INDEX 00 21:00:33
INDEX 01 21:07:25
TRACK 11 AUDIO
TITLE "Die Arbeit ist 'ne Bürde / So leb' ich ohne Sorgen / War es denn nicht wunder..."
PERFORMER "Kollo"
ISRC DEA340200967
INDEX 01 24:45:48
TRACK 12 AUDIO
TITLE "Von nun an wird mein Lippenpaar / Heissgeliebten Firlefänzchen / Denk' nur, w..."
PERFORMER "Kollo"
ISRC DEA340200968
INDEX 01 31:08:48
TRACK 13 AUDIO
TITLE "Es jeht doch nicht über Berlin / kinder, ach wie ist det fein, wieder in Berl..."
PERFORMER "Kollo"
ISRC DEA340200969
INDEX 01 35:19:25
TRACK 14 AUDIO
TITLE "Na, denn Prost / Los, wir wollen kegeln geh'n / Wenn unser kind etc."
PERFORMER "Kollo"
ISRC DEA340200970
INDEX 01 37:44:30
TRACK 15 AUDIO
TITLE "Wir fahren mit der Untergrund / Hab'n wiruns nicht schon kennen gelernt / Gro..."
PERFORMER "Kollo"
ISRC DEA340200971
INDEX 01 41:43:55
TRACK 16 AUDIO
TITLE "Heut' Nacht wird lange Nacht gemacht / Überhaupt, was geh'n denn uns die Sorg..."
PERFORMER "Kollo"
ISRC DEA340200971
INDEX 01 46:30:70
TRACK 17 AUDIO
TITLE "Het' ist der Weg nicht weit / Kurz vor der U-bahn / Unter'n Linden, Unter'n L..."
PERFORMER "Kollo"
ISRC DEA340200973
INDEX 01 49:03:33



Показать сообщения:    

Текущее время: 05-Дек 03:31

Часовой пояс: UTC + 3


Вы не можете начинать темы
Вы не можете отвечать на сообщения
Вы не можете редактировать свои сообщения
Вы не можете удалять свои сообщения
Вы не можете голосовать в опросах
Вы не можете прикреплять файлы к сообщениям
Вы не можете скачивать файлы