[TR24][OF] Maria Callas - Arias From Verdi Operas: Aida, Attila, Un ballo in maschera, I Lombardi, I Vespri siciliani, Il Corsaro, Il Trovatore [1964-5-9] (Maria Callas, Paris Conservatoire Orchestra, Nicola Rescigno) - 2014 (Classical, Opera)


Статистика раздачи [Обновить пиров]
Размер:  994 MB   |    Зарегистрирован:  8 месяцев 14 дней   |    Скачан:  0 раз

Полного источника не было: Никогда

 
   
 
 
 

[Цитировать]

MARIA CALLAS
Arias From Verdi Operas
Paris Conservatoire Orchestra & Paris Opéra Orchestra · Nicola Rescigno
- Год издания: 2014
Жанр: Classical, Opera
Издатель (лейбл): Warner Classics
Продолжительность: 00:50:13
Наличие сканов: Covers, Digital Booklet
- -
Giuseppe Verdi (1813-1901)
I Lombardi alla Prima Crociata
01. Act 2: "O Madre dal ciel soccorri" (Giselda) (4:02)
Attila
02. Act 1: "Liberamente or piangi ... Oh! nel fuggente nuvolo" (Odabella) (5:23)
Il Corsaro
03. Act 1: "Egli non riede ancora! ... Non so le tetre immagini" (Medora) (5:18)*
04. Act 2: "Nè sulla terra creatura alcuna ... talor dal carcere" (Medora) (4:01)*
Il Trovatore
05. Act 1: "Tacea la notte placida ... Di tale amor" (Leonora) (6:06)
I Vespri Siciliani
06. Act 4: "Arrigo! Ah, parli a un core" (Elena) (4:32)
Un ballo in maschera
07. Act 2: "Ecco l'orrido campo ... Ma dall'arido stelo" (Amelia) (9:17)
08. Act 3: "Morrò, ma prima in grazia" (Amelia) (4:26)
Aida
09. Act 1: "Ritorna vincitor" (Aida) (7:08)

-
Maria Callas, soprano
Orchestre de la Société des Concerts du Conservatoire
(*) Choeurs et Orchestre de l'Opéra National de Paris
Nicola Rescigno, conductor
Recorded: I & IV.1964 (7); II.1964 & IV.1965 (6); IV.1964 (2, 8 & 9); IV.1964 & I.1965 (1 & 5); II & III.1969 (3 & 4)
-Контейнер: FLAC (*.flac)
Тип рипа: tracks
Разрядность: 24bit / 96kHz
Количество каналов: 2.0
-О релизе
This third Verdi collection was the last recital that Callas recorded, over an extended period between 1964 and 1969. Arias from operas in her stage repertoire – Aida, Un ballo in maschera, I vespri siciliani and Il trovatore – were complemented by numbers from more rarely heard works from Verdi’s ‘galley years’: When five of the tracks from this recital were originally released as Callas by Request, Gramophone admired the way: ‘Callas revealed her matchless command of line, verbal declamation and musical insight.’

ОтчётыДинамический диапазон

foobar2000 1.2.2 / Dynamic Range Meter 1.1.1
log date: 2015-04-14 10:55:53
--------------------------------------------------------------------------------
Analyzed: Maria Callas, Choeurs et Orchestre de l'Opéra National de Paris, Nicola Rescigno / Maria Callas: Arias from Verdi Operas (1964/5/9) (1-2)
Maria Callas, Orchestre de la Société des Concerts du Conservatoire, Nicola Rescigno / Maria Callas: Arias from Verdi Operas (1964/5/9) (3-9)
--------------------------------------------------------------------------------
DR Peak RMS Duration Track
--------------------------------------------------------------------------------
DR13 -3.66 dB -22.92 dB 5:18 ?-Il Corsaro: Act 1: "Egli non riede ancora! ... Non so le tetre immagini" (Medora)
DR11 -5.10 dB -21.88 dB 4:01 ?-Il Corsaro: Act 2: "Nè sulla terra creatura alcuna ... talor dal carcere" (Medora)
DR11 -3.71 dB -18.44 dB 4:02 ?-I Lombardi alla Prima Crociata: Act 2: "O Madre dal ciel soccorri" (Giselda)
DR11 -2.66 dB -19.32 dB 5:23 ?-Attila: Act 1: "Liberamente or piangi ... Oh! nel fuggente nuvolo" (Odabella)
DR11 -0.54 dB -15.88 dB 6:06 ?-Il Trovatore: Act 1: "Tacea la notte placida ... Di tale amor" (Leonora)
DR12 -0.28 dB -18.13 dB 4:32 ?-I Vespri Siciliani: Act 4: "Arrigo! Ah, parli a un core" (Elena)
DR12 -0.08 dB -18.95 dB 9:17 ?-Un ballo in maschera: Act 2: "Ecco l'orrido campo ... Ma dall'arido stelo" (Amelia)
DR10 -2.21 dB -17.56 dB 4:26 ?-Un ballo in maschera: Act 3: "Morrò, ma prima in grazia" (Amelia)
DR12 -0.21 dB -18.46 dB 7:08 ?-Aida: Act 1: "Ritorna vincitor" (Aida)
--------------------------------------------------------------------------------
Number of tracks: 9
Official DR value: DR12
Samplerate: 96000 Hz
Channels: 2
Bits per sample: 24
Bitrate: 2764 kbps
Codec: FLAC
================================================================================

Скриншот спектра частот

Доп. информация

При скачивании, если необходимо, переименуйте папку, в которой будет находиться альбомБольшая просьба к скачавшим поддерживать раздачу! Помогайте другим, ведь вам тоже может понадобиться помощь!Не забываем говорить "Спасибо"!Комментарии приветствуются!
Maria Callas Hi-Res
[teatrix.ru].t20929.torrent 
Торрент: Зарегистрирован [ 2016-03-20 00:57 ] · F7F0356AD41B54809559715188C60CA5E8B56E98

Скачать .torrent

Скачать

21 KB

Статус: проверено
Скачан: 0 раз
Размер: 994 MB
terms.php



Быстрый ответ

Имя:

      
Для отправки сообщений необходимо включить JavaScript
Показать сообщения:    

Текущее время: 03-Дек 09:49

Часовой пояс: UTC + 3


Вы можете начинать темы
Вы можете отвечать на сообщения
Вы не можете редактировать свои сообщения
Вы не можете удалять свои сообщения
Вы не можете голосовать в опросах
Вы не можете прикреплять файлы к сообщениям
Вы можете скачивать файлы