(Classical) Carl Loewe - Balladen - Eberhard Buchner, Theo Adam, Norman Shetler, Rudolf Dunckel - 2013, FLAC (image+.cue) lossless


 

[Цитировать]

Carl Loewe - Balladen - Eberhard Büchner, Theo Adam, Norman Shetler, Rudolf Dunckel
Жанр: Classical
Год издания диска: 2013
Издатель (лейбл): Brilliant Classics
Номер по каталогу: 94676
Дата записи: 1983, 1968
Аудиокодек: FLAC
Тип рипа: image+.cue
Битрейт аудио: lossless
Продолжительность: 59:21
Источник: собственный рип
Наличие сканов в содержимом раздачи: да
Треклист:
Carl Loewe (1796-1869)
[1] Die Heinzelmännchen, Op.83
[2] Der verliebte Maikäfer, Op.64 No.1
[3] Der Wirtin Töchterlein, Op.1, No.2
[4] Süßes Begräbnis, Op.62 No.4
[5] Prinz Eugen, Op.92
[6] Der Nöck, Op.129 No.2
[7] Heinrich der Vogler, Op.56 No.1
[8] Erlkönig, Op.1 No.3
[9] Goldschmieds Töchterlein, Op.8 No.1
[10] Tom der Reimer, Op.135a
[11] Die Uhr, Op.123 No.3
Исполнители:
Eberhard Büchner tenor ([1]-[2])
Norman Shetler piano ([1]-[2])
Theo Adam bass ([3]-[11])
Rudolf Dunckel piano ([3]-[11])

Лог создания рипа

Exact Audio Copy V1.0 beta 3 from 29. August 2011
EAC extraction logfile from 12. December 2014, 9:11
Theo Adam, Rudolf Dunckel / Loewe - Balladen
Used drive : HL-DT-STDVDRAM GU70N Adapter: 0 ID: 0
Read mode : Secure
Utilize accurate stream : Yes
Defeat audio cache : Yes
Make use of C2 pointers : No
Read offset correction : 48
Overread into Lead-In and Lead-Out : No
Fill up missing offset samples with silence : Yes
Delete leading and trailing silent blocks : No
Null samples used in CRC calculations : Yes
Used interface : Native Win32 interface for Win NT & 2000
Used output format : User Defined Encoder
Selected bitrate : 128 kBit/s
Quality : High
Add ID3 tag : No
Command line compressor : C:\Program Files (x86)\Exact Audio Copy\Flac\flac.exe
Additional command line options : -V -8 -T "Date=%year%" -T "Genre=%genre%" %source%
TOC of the extracted CD
Track | Start | Length | Start sector | End sector
---------------------------------------------------------
1 | 0:00.00 | 9:02.67 | 0 | 40716
2 | 9:02.67 | 5:50.33 | 40717 | 66999
3 | 14:53.25 | 3:26.55 | 67000 | 82504
4 | 18:20.05 | 3:34.47 | 82505 | 98601
5 | 21:54.52 | 3:26.53 | 98602 | 114104
6 | 25:21.30 | 7:55.52 | 114105 | 149781
7 | 33:17.07 | 3:05.20 | 149782 | 163676
8 | 36:22.27 | 3:47.13 | 163677 | 180714
9 | 40:09.40 | 8:14.10 | 180715 | 217774
10 | 48:23.50 | 5:41.10 | 217775 | 243359
11 | 54:04.60 | 5:16.17 | 243360 | 267076
Range status and errors
Selected range
Filename C:\temp\Loewe - Balladen - Buchner, Adam\Loewe - Balladen.wav
Peak level 100.0 %
Extraction speed 2.1 X
Range quality 99.9 %
Test CRC 8FC45B66
Copy CRC 8FC45B66
Copy OK
No errors occurred
AccurateRip summary
Track 1 not present in database
Track 2 not present in database
Track 3 not present in database
Track 4 not present in database
Track 5 not present in database
Track 6 not present in database
Track 7 not present in database
Track 8 not present in database
Track 9 not present in database
Track 10 not present in database
Track 11 not present in database
None of the tracks are present in the AccurateRip database
End of status report
==== Log checksum 2A250E1623BD46F24C251A9417DEA967A260BA33452A37881415DFFC59E2B113 ====



Показать сообщения:    

Текущее время: 11-Дек 03:22

Часовой пояс: UTC + 3


Вы не можете начинать темы
Вы не можете отвечать на сообщения
Вы не можете редактировать свои сообщения
Вы не можете удалять свои сообщения
Вы не можете голосовать в опросах
Вы не можете прикреплять файлы к сообщениям
Вы не можете скачивать файлы