(Opera) Alberto Ginastera – Bomarzo / Альберто Хинастера - Бомарцо (Julius Rudel; Salvador Novoa, Michael Devlin, Brent Ellis, Andres Aranda, Joaquin Romaguera, Claramae Turner), 1967 - First Premiere performance - 1996, FLAC (image+.cue), lossless


 

[Цитировать]

Alberto Ginastera – Bomarzo / Альберто Хинастера - Бомарцо (Julius Rudel; Salvador Novoa, Michael Devlin, Brent Ellis, Andres Aranda, Joaquin Romaguera, Claramae Turner, Isabel Penagos)
Жанр: Opera
Страна-производитель диска: Англия
Год издания диска: 1996
Издатель (лейбл): CBS
Дата записи: 1967
Аудиокодек: FLAC
Тип рипа: image+.cue
Битрейт аудио: lossless
Продолжительность: 135:49
Источник: релизер (Bill)
Исполнители:
Pier Francesco Orisini, duque de Bomarzo - Salvador Novoa,
Gian Conrado Orsini - Michael Devlin,
Diana Orsini - Claramae Turner,
Julia Farnese - Isabel Penagos,
Pantasilea - Joanna Simon,
Silvio de Narni - Richard Torigi,
Maerbale - Brent Ellis,
Girolamo - Andres Aranda,
Nicolas Orsini - Joaquin Romaguera,
Mensajero - Nico Castel,
Niño pastor - David Prather,
Pier Francesco como niño - Patricio Porras,
Girolamo como niño - Andres Aranda,
Maerbale como niño - Manuel Folgar.
Orchestra of The Opera Society of Washington,
Julius Rudel - conductor.
Record of a live performance during the world premiere of the Opera at Lisner Auditorium, Washington, DC, May 19, 1967.

Лог создания рипаЛог создания рипа CD 1

Exact Audio Copy V1.0 beta 3 from 29. August 2011
EAC extraction logfile from 27. July 2014, 7:15
Opera Society of Washington / Bomarzo - CD1
Used drive : LITE-ON DVDRW LH-20A1H Adapter: 4 ID: 0
Read mode : Secure
Utilize accurate stream : Yes
Defeat audio cache : Yes
Make use of C2 pointers : Yes
Read offset correction : 6
Overread into Lead-In and Lead-Out : No
Fill up missing offset samples with silence : Yes
Delete leading and trailing silent blocks : No
Null samples used in CRC calculations : Yes
Used interface : Native Win32 interface for Win NT & 2000
Used output format : User Defined Encoder
Selected bitrate : 896 kBit/s
Quality : High
Add ID3 tag : No
Command line compressor : C:\Program Files\Exact Audio Copy\FLAC\FLAC.EXE
Additional command line options : -6 -V -T "ARTIST=%artist%" -T "TITLE=%title%" -T "ALBUM=%albumtitle%" -T "DATE=%year%" -T "TRACKNUMBER=%tracknr%" -T "GENRE=%genre%" -T "COMMENT=%comment%" -T "BAND=%albuminterpret%" -T "ALBUMARTIST=%albuminterpret%" -T "COMPOSER=%composer%" %haslyrics%--tag-from-file=LYRICS="%lyricsfile%"%haslyrics% -T "DISCNUMBER=%cdnumber%" -T "TOTALDISCS=%totalcds%" -T "TOTALTRACKS=%numtracks%" %hascover%--picture="%coverfile%"%hascover% %source% -o %dest%
TOC of the extracted CD
Track | Start | Length | Start sector | End sector
---------------------------------------------------------
1 | 0:00.00 | 6:13.12 | 0 | 27986
2 | 6:13.12 | 12:01.56 | 27987 | 82117
3 | 18:14.68 | 1:53.00 | 82118 | 90592
4 | 20:07.68 | 8:02.13 | 90593 | 126755
5 | 28:10.06 | 10:48.42 | 126756 | 175397
6 | 38:58.48 | 2:46.06 | 175398 | 187853
7 | 41:44.54 | 10:09.63 | 187854 | 233591
8 | 51:54.42 | 2:28.30 | 233592 | 244721
9 | 54:22.72 | 7:43.09 | 244722 | 279455
10 | 62:06.06 | 6:12.55 | 279456 | 307410
11 | 68:18.61 | 4:07.56 | 307411 | 325991
Range status and errors
Selected range
Filename G:\Bomarzo\Bomarzo - CD1\Opera Society of Washington - Bomarzo - CD1.wav
Peak level 99.1 %
Extraction speed 5.3 X
Range quality 100.0 %
Copy CRC 0B269E43
Copy OK
No errors occurred
AccurateRip summary
Track 1 accurately ripped (confidence 1)
Track 2 accurately ripped (confidence 1)
Track 3 accurately ripped (confidence 1)
Track 4 accurately ripped (confidence 1)
Track 5 accurately ripped (confidence 1)
Track 6 accurately ripped (confidence 1)
Track 7 accurately ripped (confidence 1)
Track 8 accurately ripped (confidence 1)
Track 9 accurately ripped (confidence 1)
Track 10 accurately ripped (confidence 1)
Track 11 accurately ripped (confidence 1)
All tracks accurately ripped
End of status report

Лог создания рипа CD 2

Exact Audio Copy V1.0 beta 3 from 29. August 2011
EAC extraction logfile from 27. July 2014, 7:32
Opera Society of Washington / Bomarzo - CD2
Used drive : LITE-ON DVDRW LH-20A1H Adapter: 4 ID: 0
Read mode : Secure
Utilize accurate stream : Yes
Defeat audio cache : Yes
Make use of C2 pointers : Yes
Read offset correction : 6
Overread into Lead-In and Lead-Out : No
Fill up missing offset samples with silence : Yes
Delete leading and trailing silent blocks : No
Null samples used in CRC calculations : Yes
Used interface : Native Win32 interface for Win NT & 2000
Used output format : User Defined Encoder
Selected bitrate : 896 kBit/s
Quality : High
Add ID3 tag : No
Command line compressor : C:\Program Files\Exact Audio Copy\FLAC\FLAC.EXE
Additional command line options : -6 -V -T "ARTIST=%artist%" -T "TITLE=%title%" -T "ALBUM=%albumtitle%" -T "DATE=%year%" -T "TRACKNUMBER=%tracknr%" -T "GENRE=%genre%" -T "COMMENT=%comment%" -T "BAND=%albuminterpret%" -T "ALBUMARTIST=%albuminterpret%" -T "COMPOSER=%composer%" %haslyrics%--tag-from-file=LYRICS="%lyricsfile%"%haslyrics% -T "DISCNUMBER=%cdnumber%" -T "TOTALDISCS=%totalcds%" -T "TOTALTRACKS=%numtracks%" %hascover%--picture="%coverfile%"%hascover% %source% -o %dest%
TOC of the extracted CD
Track | Start | Length | Start sector | End sector
---------------------------------------------------------
1 | 0:00.00 | 15:24.18 | 0 | 69317
2 | 15:24.18 | 7:20.65 | 69318 | 102382
3 | 22:45.08 | 2:34.51 | 102383 | 113983
4 | 25:19.59 | 6:58.18 | 113984 | 145351
5 | 32:18.02 | 8:12.22 | 145352 | 182273
6 | 40:30.24 | 6:51.05 | 182274 | 213103
7 | 47:21.29 | 6:16.17 | 213104 | 241320
8 | 53:37.46 | 1:48.01 | 241321 | 249421
9 | 55:25.47 | 6:27.70 | 249422 | 278516
10 | 61:53.42 | 2:52.29 | 278517 | 291445
11 | 64:45.71 | 3:58.00 | 291446 | 309295
Range status and errors
Selected range
Filename G:\Bomarzo\Bomarzo - CD2\Opera Society of Washington - Bomarzo - CD2.wav
Peak level 94.0 %
Extraction speed 5.3 X
Range quality 100.0 %
Copy CRC 89F83CEB
Copy OK
No errors occurred
AccurateRip summary
Track 1 accurately ripped (confidence 1)
Track 2 accurately ripped (confidence 1)
Track 3 accurately ripped (confidence 1)
Track 4 accurately ripped (confidence 1)
Track 5 accurately ripped (confidence 1)
Track 6 accurately ripped (confidence 1)
Track 7 accurately ripped (confidence 1)
Track 8 accurately ripped (confidence 1)
Track 9 accurately ripped (confidence 1)
Track 10 accurately ripped (confidence 1)
Track 11 accurately ripped (confidence 1)
All tracks accurately ripped
End of status report

Содержание индексной карты (.CUE)Содержание индексной карты (.CUE) CD 1

REM GENRE Opera
REM DATE 1967
REM DISCID 8810FA0B
REM COMMENT "ExactAudioCopy v1.0b3"
PERFORMER "Opera Society of Washington"
TITLE "Bomarzo - CD1"
FILE "Opera Society of Washington - Bomarzo - CD1.flac" WAVE
TRACK 01 AUDIO
TITLE "Bomarzo, Act 1: Prelude"
PERFORMER "Opera Society of Washington"
INDEX 01 00:00:00
TRACK 02 AUDIO
TITLE "Bomarzo, Act 1, Sc 1: The potion"
PERFORMER "Opera Society of Washington"
INDEX 01 06:13:12
TRACK 03 AUDIO
TITLE "Bomarzo, Act 1: Interlude"
PERFORMER "Opera Society of Washington"
INDEX 01 18:14:68
TRACK 04 AUDIO
TITLE "Bomarzo, Act 1, Sc 2: Pier Francesco's childhood"
PERFORMER "Opera Society of Washington"
INDEX 01 20:07:68
TRACK 05 AUDIO
TITLE "Bomarzo, Act 1, Sc 3: The horoscope"
PERFORMER "Opera Society of Washington"
INDEX 01 28:10:06
TRACK 06 AUDIO
TITLE "Bomarzo, Act 1: Interlude"
PERFORMER "Opera Society of Washington"
INDEX 01 38:58:48
TRACK 07 AUDIO
TITLE "Bomarzo, Act 1, Sc 4: Pantasilea"
PERFORMER "Opera Society of Washington"
INDEX 01 41:44:54
TRACK 08 AUDIO
TITLE "Bomarzo, Act 1: Interlude"
PERFORMER "Opera Society of Washington"
INDEX 01 51:54:42
TRACK 09 AUDIO
TITLE "Bomarzo, Act 1, Sc 5: Death of Girolamo"
PERFORMER "Opera Society of Washington"
INDEX 01 54:22:72
TRACK 10 AUDIO
TITLE "Bomarzo, Act 1, Sc 6 Pier Francesco Orsini, Duke of Bomarzo"
PERFORMER "Opera Society of Washington"
INDEX 01 62:06:06
TRACK 11 AUDIO
TITLE "Bomarzo, Act 1: Interlude"
PERFORMER "Opera Society of Washington"
INDEX 01 68:18:61

Содержание индексной карты (.CUE) CD 2

REM GENRE Opera
REM DATE 1967
REM DISCID 9F101B0B
REM COMMENT "ExactAudioCopy v1.0b3"
PERFORMER "Opera Society of Washington"
TITLE "Bomarzo - CD2"
FILE "Opera Society of Washington - Bomarzo - CD2.flac" WAVE
TRACK 01 AUDIO
TITLE "Bomarzo, Act 1, Sc 7: Fiesta in Bomarzo; Sc 8: The portrait of Lorenzo Lotti"
PERFORMER "Opera Society of Washington"
INDEX 01 00:00:00
TRACK 02 AUDIO
TITLE "Bomarzo, Act 2, Sc 9: Julia Farnese"
PERFORMER "Opera Society of Washington"
INDEX 01 15:24:18
TRACK 03 AUDIO
TITLE "Bomarzo, Act 2: Interlude"
PERFORMER "Opera Society of Washington"
INDEX 01 22:45:08
TRACK 04 AUDIO
TITLE "Bomarzo, Act 2, Sc 10: The bridal chamber"
PERFORMER "Opera Society of Washington"
INDEX 01 25:19:59
TRACK 05 AUDIO
TITLE "Bomarzo, Act 2, Sc 11: The dream"
PERFORMER "Opera Society of Washington"
INDEX 01 32:18:02
TRACK 06 AUDIO
TITLE "Bomarzo, Act 2, Sc 12: The minotaur"
PERFORMER "Opera Society of Washington"
INDEX 01 40:30:24
TRACK 07 AUDIO
TITLE "Bomarzo, Act 2, Sc 13: Maerbale"
PERFORMER "Opera Society of Washington"
INDEX 01 47:21:29
TRACK 08 AUDIO
TITLE "Bomarzo, Act 2: Interlude"
PERFORMER "Opera Society of Washington"
INDEX 01 53:37:46
TRACK 09 AUDIO
TITLE "Bomarzo, Act 2, Sc 14: The alchemy"
PERFORMER "Opera Society of Washington"
INDEX 01 55:25:47
TRACK 10 AUDIO
TITLE "Bomarzo, Act 2: Interlude"
PERFORMER "Opera Society of Washington"
INDEX 01 61:53:42
TRACK 11 AUDIO
TITLE "Bomarzo, Act 2, Sc 15: The park of the monsters"
PERFORMER "Opera Society of Washington"
INDEX 01 64:45:71

Треклист

Disc 1:
Act I:
1. Prelude
2. Scene 1 - The potion
3. Interlude
4. Scene 2 - Pier Francesco`s childhood
5. Scene 3 - The horoscope
6. Interlude
7. Scene 4 - Pantasilea
8. Interlude
9. Scene 5 - Death of Girolamo
10. Scene 6 - Pier Francesco Orsini, Duke of Bomarzo
11. Interlude
Disc 2:
1. Scene 7 - Fiesta in Bomarzo & Scene 8 - The portrait by Lorenzo Lott
Act II:
2. Scene 9 - Julia Farnese
3. Interlude
4. Scene 10 - The bridal chamber
5. Scene 11 - The Dream
6. Scene 12 - The minotaur
7. Scene 13 - Maerbale
8. Interlude
9. Scene 14 - The alchemy
10. Interlude
11. Scene 15 - The park of the monsters
Bomarzo is an opera in two acts by Alberto Ginastera, his Opus 34, to a Spanish libretto by Manuel Mujica Laínez, based on his 1962 novel about the 16th century Italian eccentric Pier Francesco Orsini. The opera had its world premiere at the Opera Society of Washington, Washington D.C., on 19 May 1967. The same production was first given at New York City Opera on 14 March 1968. The work had been scheduled for its first performance in Argentina on 4 August 1967 at the Teatro Colón, but the Argentine president, Juan Carlos Onganía, had banned the production, objecting to the sexual content of the story. The first performance in Argentina did not occur until 1972, with the composer in attendance. The first UK production was at English National Opera on 3 November 1976, in an English translation by Lionel Salter.
The opera makes use of the twelve-tone technique and quarter tones, the latter primarily in the harp parts. The work's two acts encompass a prelude and 15 scenes. Pola Suarez Urtubey has published an analysis of the opera with an outline of the dramatic structure.
Synopsis
Pier Francesco Orsini, the Duke of Bomarzo, a stunted hunchback, drinks what his astrologer Silvio de Narni claims to be a magic potion that will grant the Duke immortality. However, the drink turns out to be poisoned. After the poison starts to work, Bomarzo begins to recall his life in a series of flashbacks.
His father drags the young Pier Francesco into a room where a large skeleton dances and haunts him. Later, his father falls in battle. In Florence, the young, virginal Pier Francesco goes to see to the courtesan Pantasilea. However, he sees his image in her room of mirrors, to his disturbance.
Pier Francesco's brother Girolamo falls from a cliff and dies, and Pier Francesco becomes the new Duke of Bomarzo. He meets Julia Farnese, who prefers Bomarzo's brother Maerbale, to his anger. At a dance festival, the Duke experiences various dreams. While courting Julia, he spills a glass of red wine on her dress, which he interprets as a premonition of death.
Bomarzo and Julia eventually marry, but Bomarzo then becomes impotent. As time passes, the Duke creates large stone sculptures on his estate, symbolic of his tortured feelings. He starts to think that Julia is betraying him with Maerbale. The Duke orders his slave Abul to kill his brother. The astrologer Silvio mixes the magic potion as Bomarzo’s nephew Nicolas watches. Nicolas then poisons the drink. After he drinks the potion, the Duke dies.



Показать сообщения:    

Текущее время: 10-Дек 23:32

Часовой пояс: UTC + 3


Вы не можете начинать темы
Вы не можете отвечать на сообщения
Вы не можете редактировать свои сообщения
Вы не можете удалять свои сообщения
Вы не можете голосовать в опросах
Вы не можете прикреплять файлы к сообщениям
Вы не можете скачивать файлы