(Choral, Chamber, Opera) Giacomo Puccini: Discoveries [Collection of rare and World Premiere Recordings] (Riccardo Chailly; Chiara Taigi, Eva Urbanova, Maria Fontosh, Mario Luperi, Joseph Calleja, Dario Volonte) - 2004, FLAC (image+.cue), lossless


 

[Цитировать]

Giacomo Puccini: Discoveries [Collection of rare and World Premiere Recordings] (Riccardo Chailly; Chiara Taigi, Eva Urbanova, Maria Fontosh, Alberto Mastromarino, Mario Luperi, Joseph Calleja, Dario Volonté)
Жанр: Choral, Sacred, Opera, Chamber
Страна-производитель диска: Германия
Год издания диска: 2004
Издатель (лейбл): DECCA
Дата записи: 2004
Аудиокодек: FLAC
Тип рипа: image+.cue
Битрейт аудио: lossless
Продолжительность: 80:47
Источник: odeonmusic
Исполнители:
Joseph Calleja - tenor (4),
Chiara Taigi - soprano (9),
Roberto de Thierry - organ (7, 9, 11),
Alberto Mastromarino - baritone (13),
Turandot's excerpts (14):
Eva Urbanova - soprano (Turandot),
Dario Volonté - tenor (Calaf),
Mario Luperi - bass (Timur),
Maria Fontosh - soprano (Liu),
Domenico Balzani - baritone (Ping),
Bülent Bezdüz - tenor (Pang),
Carlo Bosi - tenor (Pong).
Riccardo Chailly - Conductor,
Coro di Milano Giuseppe Verdi,
Orchestra Sinfonica di Milano Giuseppe Verdi.
Recorded at Auditorium di Milano, 17-24 June, 2003.

Лог создания рипа

Exact Audio Copy V1.0 beta 3 from 29. August 2011
EAC extraction logfile from 10. December 2013, 12:32
Riccardo Chailly / Puccini - “Discoveries” - Riccardo Chailly
Used drive : TSSTcorpCDDVDW SH-222BB Adapter: 2 ID: 1
Read mode : Secure
Utilize accurate stream : Yes
Defeat audio cache : Yes
Make use of C2 pointers : No
Read offset correction : 6
Overread into Lead-In and Lead-Out : No
Fill up missing offset samples with silence : Yes
Delete leading and trailing silent blocks : No
Null samples used in CRC calculations : Yes
Used interface : Native Win32 interface for Win NT & 2000
Used output format : User Defined Encoder
Selected bitrate : 1024 kBit/s
Quality : High
Add ID3 tag : No
Command line compressor : C:\Program Files\Exact Audio Copy\Flac\flac.exe
Additional command line options : -8 -V -T "TITLE=%title%" -T "ARTIST=%artist%" -T "ALBUMARTIST=%albumartist%" -T "ALBUM=%albumtitle%" -T "DATE=%year%" -T "TRACKNUMBER=%tracknr%" -T "TRACKTOTAL=%numtracks%" -T "GENRE=%genre%" -T "COMMENT=%comment%" -T "PERFORMER=%albuminterpret%" -T "COMPOSER=%composer%" %source% -o %dest%
TOC of the extracted CD
Track | Start | Length | Start sector | End sector
---------------------------------------------------------
1 | 0:00.00 | 2:34.27 | 0 | 11576
2 | 2:34.27 | 5:02.12 | 11577 | 34238
3 | 7:36.39 | 4:31.48 | 34239 | 54611
4 | 12:08.12 | 7:28.48 | 54612 | 88259
5 | 19:36.60 | 1:48.25 | 88260 | 96384
6 | 21:25.10 | 2:36.54 | 96385 | 108138
7 | 24:01.64 | 3:33.12 | 108139 | 124125
8 | 27:35.01 | 0:25.00 | 124126 | 126000
9 | 28:00.01 | 4:40.31 | 126001 | 147031
10 | 32:40.32 | 4:17.02 | 147032 | 166308
11 | 36:57.34 | 5:34.05 | 166309 | 191363
12 | 42:31.39 | 3:41.03 | 191364 | 207941
13 | 46:12.42 | 11:19.37 | 207942 | 258903
14 | 57:32.04 | 23:13.06 | 258904 | 363384
Range status and errors
Selected range
Filename E:\4000\[4271] Puccini – “Discoveries” – Riccardo Chailly\Puccini - “Discoveries” - Riccardo Chailly.wav
Peak level 99.3 %
Extraction speed 8.1 X
Range quality 100.0 %
Test CRC 3893AA42
Copy CRC 3893AA42
Copy OK
No errors occurred
AccurateRip summary
Track 1 accurately ripped (confidence 8) [2019D3DF] (AR v2)
Track 2 accurately ripped (confidence 8) [54814345] (AR v2)
Track 3 accurately ripped (confidence 8) [4ADEDAB7] (AR v2)
Track 4 accurately ripped (confidence 8) [A944E448] (AR v2)
Track 5 accurately ripped (confidence 7) [D7713A0F] (AR v2)
Track 6 accurately ripped (confidence 8) [EFADD4E1] (AR v2)
Track 7 accurately ripped (confidence 8) [16F39423] (AR v2)
Track 8 accurately ripped (confidence 8) [30F41E83] (AR v2)
Track 9 accurately ripped (confidence 8) [8E07443D] (AR v2)
Track 10 accurately ripped (confidence 8) [C77A0346] (AR v2)
Track 11 accurately ripped (confidence 8) [184869CA] (AR v2)
Track 12 accurately ripped (confidence 8) [0D8AEE1E] (AR v2)
Track 13 accurately ripped (confidence 8) [49D72E22] (AR v2)
Track 14 accurately ripped (confidence 8) [BD8514DD] (AR v2)
All tracks accurately ripped
End of status report

Содержание индексной карты (.CUE)

REM GENRE Classical
REM DATE 2004
REM DISCID CF12ED0E
REM COMMENT "ExactAudioCopy v1.0b3"
PERFORMER "Riccardo Chailly"
TITLE "Puccini - “Discoveries” - Riccardo Chailly"
FILE "Puccini - “Discoveries” - Riccardo Chailly.flac" WAVE
TRACK 01 AUDIO
TITLE "Preludio sinfonico, for orchestra in A major"
PERFORMER "Giuseppe Verdi Orchestra Milan & Riccardo Chailly"
INDEX 01 00:00:00
TRACK 02 AUDIO
TITLE "Scherzo for string quartet in A minor"
PERFORMER "Giuseppe Verdi Orchestra Milan & Riccardo Chailly"
INDEX 00 02:30:19
INDEX 01 02:34:27
TRACK 03 AUDIO
TITLE "Manon Lescaut: Preludio Atto 2"
PERFORMER "Giuseppe Verdi Orchestra Milan & Riccardo Chailly"
INDEX 00 07:31:14
INDEX 01 07:36:39
TRACK 04 AUDIO
TITLE "Cantata 'Cessato il suon dell'armi' for tenor solo, chorus & orchestra (recon..."
PERFORMER "Giuseppe Verdi Orchestra Milan & Riccardo Chailly"
INDEX 00 12:04:05
INDEX 01 12:08:12
TRACK 05 AUDIO
TITLE "Scossa elettrica, Marcetta brillante, for piano (original version)"
PERFORMER "Giuseppe Verdi Orchestra Milan & Riccardo Chailly"
INDEX 00 19:33:66
INDEX 01 19:36:60
TRACK 06 AUDIO
TITLE "Corazzata Sicilia, marcia d'ordinanza (after Puccini's La Bohиme), for banda"
PERFORMER "Giuseppe Verdi Orchestra Milan & Riccardo Chailly"
INDEX 00 21:22:52
INDEX 01 21:25:10
TRACK 07 AUDIO
TITLE "Inno di Roma, song for voice & piano"
PERFORMER "Giuseppe Verdi Orchestra Milan & Riccardo Chailly"
INDEX 00 23:58:37
INDEX 01 24:01:64
TRACK 08 AUDIO
TITLE "Ecce sacerdos magnus (Musical dedication for the 1905 enthronement of the new..."
PERFORMER "Riccardo Chailly"
INDEX 00 27:25:33
INDEX 01 27:35:01
TRACK 09 AUDIO
TITLE "Salve del ciel regina, for soprano & harmonium"
PERFORMER "Riccardo Chailly"
INDEX 01 28:00:01
TRACK 10 AUDIO
TITLE "Adagetto in F major, for small orchestra"
PERFORMER "Giuseppe Verdi Orchestra Milan & Riccardo Chailly"
INDEX 01 32:40:32
TRACK 11 AUDIO
TITLE "Requiem for soprano, tenor, bass & organ (or harmonium) ('In Memory of G. Ver..."
PERFORMER "Riccardo Chailly"
INDEX 00 36:55:68
INDEX 01 36:57:34
TRACK 12 AUDIO
TITLE "Vexilla regis prodeunt, hymn for male chorus & organ"
PERFORMER "Riccardo Chailly"
INDEX 00 42:27:22
INDEX 01 42:31:39
TRACK 13 AUDIO
TITLE "Motet et Credo, for baritone, chorus & orchestra ('Per San Paolino'): Mottetto"
PERFORMER "Giuseppe Verdi Orchestra Milan & Riccardo Chailly"
INDEX 00 46:09:55
INDEX 01 46:12:42
TRACK 14 AUDIO
TITLE "Turandot: Finale Atto 3"
PERFORMER "Riccardo Chailly"
INDEX 00 57:21:30
INDEX 01 57:32:04

Треклист

1. Preludio sinfonico, for orchestra in A major
2. Scherzo for string quartet in A minor
3. Manon Lescaut: Preludio Atto 2
4. Cantata "Cessato il suon dell'armi"
5. Scossa elettrica, Marcetta brillante, for piano
6. Corazzata Sicilia, marcia d'ordinanza (after Puccini's La Bohème), for banda
7. Inno di Roma, song for voice & piano
8. Ecce sacerdos magnus, for a cappella choir
9. Salve del ciel regina, for soprano & harmonium
10. Adagetto in F major, for small orchestra
11. Requiem for soprano, tenor, bass & organ (or harmonium) ("In Memory of G. Verdi")
12. Vexilla regis prodeunt, hymn for male chorus & organ
13. Motet et Credo, for baritone, chorus & orchestra
14. Turandot: Finale Atto 3



Показать сообщения:    

Текущее время: 05-Дек 23:41

Часовой пояс: UTC + 3


Вы не можете начинать темы
Вы не можете отвечать на сообщения
Вы не можете редактировать свои сообщения
Вы не можете удалять свои сообщения
Вы не можете голосовать в опросах
Вы не можете прикреплять файлы к сообщениям
Вы не можете скачивать файлы