Тим Талер, или проданный смех (Глеб Селянин) [1970, фильм - спектакль, экранизация, WEB-DLRip]


 

[Цитировать]

Тим Талер, или проданный смех
Жанр: фильм - спектакль, экранизация
Год выпуска: 1970
Продолжительность: 01:59:13
Режиссёр: Глеб Селянин
В ролях: Наталья Маркова, Анатолий Абрамов, Анатолий Равикович, Алексей Розанов, Елизавета Уварова, Анатолий Азо, Светлана Мазовецкая, Ольга Аверичева, Овсей Каган, Константин Злобин, Михаил Девяткин, Герман Лупекин, Дмитрий Бессонов
Описание: По повести Д.Крюса. В спектакле рассказывается удивительная история о мальчике-сироте Тиме Талере, променявшем свой бесценный дар, беззаботный заразительный смех, на способность выигрывать любое пари. Эта фантастическая сделка была заключена с бароном ТРЕЧем, (а вернее, если прочесть имя наоборот, - самим ЧЕРТом). Очень скоро Тим понимает, что, лишившись смеха, он потерял способность противостоять невзгодам и, несмотря на несметные богатства, которые он может получить, выигрывая любые пари, не может чувствовать себя счастливым. Узнав на горьком опыте, что умение быть счастливым — гораздо более ценный дар, чем все богатства мира, он решает, во что бы то ни стало вернуть свой смех. Получится ли у него это, вы узнаете, посмотрев спектакль.
Семпл: http://sendfile.su/1108408
Качество видео: WEB-DLRip
Формат видео: AVI
Видео: XVID; 640x480; 4:3; 25 fps; 1685 Kbps
Аудио: Rus; MP3; 44.1 KHz; 128 Kbps; mono

MediaInfo

General
Format : AVI
Format/Info : Audio Video Interleave
File size : 1.51 GiB
Duration : 1h 59mn
Overall bit rate : 1 818 Kbps
Writing application : MEncoder 1.0rc2-4.2.4
Writing library : MPlayer
Video #0
ID : 0
Format : MPEG-4 Visual
Format profile : Simple@L3
Format settings, BVOP : No
Format settings, QPel : No
Format settings, GMC : No warppoints
Format settings, Matrix : Default (H.263)
Codec ID : XVID
Codec ID/Hint : XviD
Duration : 1h 59mn
Bit rate : 1 685 Kbps
Width : 640 pixels
Height : 480 pixels
Display aspect ratio : 4:3
Frame rate : 25.000 fps
Color space : YUV
Chroma subsampling : 4:2:0
Bit depth : 8 bits
Scan type : Progressive
Compression mode : Lossy
Bits/(Pixel*Frame) : 0.219
Stream size : 1.40 GiB (93%)
Writing library : XviD 1.1.2 (UTC 2006-11-01)
Audio #1
ID : 1
Format : MPEG Audio
Format version : Version 1
Format profile : Layer 3
Codec ID : 55
Codec ID/Hint : MP3
Duration : 1h 59mn
Bit rate mode : Constant
Bit rate : 128 Kbps
Channel(s) : 1 channel
Sampling rate : 44.1 KHz
Compression mode : Lossy
Delay relative to video : 23ms
Stream size : 109 MiB (7%)
Alignment : Split accross interleaves
Interleave, duration : 500 ms (12.50 video frames)
Interleave, preload duration : 1000 ms

Скриншот с названием постановки

Скриншоты








Показать сообщения:    

Текущее время: 05-Дек 03:31

Часовой пояс: UTC + 3


Вы не можете начинать темы
Вы не можете отвечать на сообщения
Вы не можете редактировать свои сообщения
Вы не можете удалять свои сообщения
Вы не можете голосовать в опросах
Вы не можете прикреплять файлы к сообщениям
Вы не можете скачивать файлы