Таисия Повалий и Ирина Билык - «Моя правда. История украинского шоу-бизнеса. В постели с врагом» (Эфир от 14.04.2015) [2015 г., Ток-Шоу, DVB]


Статистика раздачи [Обновить пиров]
Размер:  1.36 GB   |    Зарегистрирован:  8 месяцев 14 дней   |    Скачан:  0 раз

Полного источника не было: Никогда

 
   
 
 
 

[Цитировать]

Таисия Повалий и Ирина Билык - «Моя правда. История украинского шоу-бизнеса. В постели с врагом» (Эфир от 14.04.2015)
Страна: Украина
Жанр: Ток-Шоу
Продолжительность: 00:44:35
Язык: Украинский и русский
Год выпуска: 2015 г.
Выпущено: Украина, Телеканал "СТБ".
Описание: Это шоу в котором жизнь героев программы похожа на яркую вспышку звезды. Ими увлекаются, их боготворят и подражают им. Они стали кумирами миллионов поклонников в разных странах и остаются ими и по сей день.
В этой программе две истории, двух мега-див украинского шоу-бизнеса: Через что пришлось пройти на пути к признанию? Чем пришлось пожертвовать ради любви? А так же много вопросов, много тайн таких похожих и очень разных Таисии Повалий и Ирины Билык.
Источник: Собственный рип
Доп. информация: Рип чистый. Без посторонних надписей. Выкладывается как есть.

Сэмпл: https://yadi.sk/i/bWo0kW-zg3pMq
Качество: DVB
Контейнер: MPEG-PS
Видео кодек: MPEG2
Аудио кодек: MPEG1
Видео: MPEG2 720x576 (4:3) 25.00fps 4 012 Kbps, 0.387 bit/pixel
Аудио: MPEG1 48000Hz stereo 256 Кбит/сек

Скриншоты

Скринлист

MediaInfo

Общее
Полное имя : D:\Раздачи\Моя правда\Моя правда. История украинского шоу-бизнеса. Ирина Билык и Таисия Повалий. В постели с врагом (2015, DVB, Ток-Шоу, Эфир от 14.04.2015) .mpg
Формат : MPEG-PS
Размер файла : 1,36 Гбайт
Продолжительность : 44 м.
Режим общего битрейта : Переменный
Общий поток : 4354 Кбит/сек
Библиотека кодирования : (c) 1998-2010 Womble Multimedia, Inc. / MPEG Video Wizard DVD 5.0.0.114 (01/2010) / Mar 19 2011
Видео
Идентификатор : 224 (0xE0)
Формат : MPEG Video
Версия формата : Version 2
Профиль формата : Main@Main
Параметр BVOP формата : Да
Параметр матрицы формата : Выборочная
Параметр GOP формата : Variable
Format_Settings_PictureStructure : Frame
Продолжительность : 44 м.
Вид битрейта : Переменный
Битрейт : 4012 Кбит/сек
Максимальный битрейт : 15,0 Мбит/сек
Ширина : 720 пикселей
Высота : 576 пикселей
Соотношение сторон : 4:3
Частота кадров : 25,000 кадров/сек
Стандарт вещания : PAL
Цветовое пространство : YUV
Субдискретизация насыщенности : 4:2:0
Битовая глубина : 8 бит
Тип развёртки : Чересстрочная
Порядок развёртки : Верхнее поле первое
Метод сжатия : С потерями
Бит/(Пиксели*Кадры) : 0.387
Временной код первого кадра : 00:00:00:00
Оригинал временного кода : Group of pictures header
Размер потока : 1,25 Гбайт (92%)
Библиотека кодирования : (c) 1998-2010 Womble Multimedia, Inc. / MPEG Video Wizard DVD 5.0.0.114 (01/2010) / Mar 19 2011
Gop_OpenClosed_FirstFrame : Closed
Аудио
Идентификатор : 192 (0xC0)
Формат : MPEG Audio
Версия формата : Version 1
Профиль формата : Layer 2
Продолжительность : 44 м.
Вид битрейта : Постоянный
Битрейт : 256 Кбит/сек
Каналы : 2 канала
Частота : 48,0 КГц
Метод сжатия : С потерями
Размер потока : 81,6 Мбайт (6%)

[teatrix.ru].t20940.torrent 
Торрент: Зарегистрирован [ 2016-03-20 00:57 ] · DE1C359155BCE8CDFB0DC3CFD7ABB78AA3BC6F07

Скачать .torrent

Скачать

14 KB

Статус: проверено
Скачан: 0 раз
Размер: 1.36 GB
terms.php



Быстрый ответ

Имя:

      
Для отправки сообщений необходимо включить JavaScript
Показать сообщения:    

Текущее время: 04-Дек 00:47

Часовой пояс: UTC + 3


Вы можете начинать темы
Вы можете отвечать на сообщения
Вы не можете редактировать свои сообщения
Вы не можете удалять свои сообщения
Вы не можете голосовать в опросах
Вы не можете прикреплять файлы к сообщениям
Вы можете скачивать файлы