(Classical) Claude Delangle · The Japanese Saxophone (Natsuda, Nodaira, Tanada, Hosokawa, Takemitsu, Taïra/Taira, Yuasa, Tanaka), 1998, FLAC (tracks+.cue) lossless


 

[Цитировать]

The Japanese Saxophone
Жанр: сlassical
Страна-производитель диска: Франция
Год издания диска: май 1998
Издатель (лейбл): BIS Records
Номер по каталогу: BIS-CD-890
Дата записи: ?
Аудиокодек: FLAC
Тип рипа: tracks+.cue
Битрейт аудио: lossless
Продолжительность: 01:19:38
Источник: скачано с what.cd
Наличие сканов в содержимом раздачи: нет
Исполнители:
Claude Delangle, saxophone
Jean Geoffroy, percussion
Odile Delangle, piano
Треклист:
01. Mazakusa Natsuda · West, or Evening Song In Autumn (12:19)
02. Ichiro Nodaira · Arabesque III (11:55)
03. Fuminori Tanada · Mysterious Morning III (6:11)
04. Toshio Hosokawa · Vertical Time Study II (11:37)
05. Tōru Takemitsu · Distance (8:36)
06. Yoshihisa Taïra · Pénombres VI (10:13)
07. Joji Yuasa · Not I But The Wind... (10:09)
08. Karen Tanaka · Night Bird (8:38)

Лог создания рипа

X Lossless Decoder version 20130127 (142.3)
XLD extraction logfile from 2013-03-06 11:02:59 -0700
Claude Delangle / The Japanese Saxophone
Used drive : HL-DT-ST DVDRW GS31N (revision TA17)
Media type : Pressed CD
Ripper mode : XLD Secure Ripper
Disable audio cache : OK for the drive with a cache less than 1375KiB
Make use of C2 pointers : NO
Read offset correction : 667
Max retry count : 100
Gap status : Analyzed, Appended (except HTOA)
TOC of the extracted CD
Track | Start | Length | Start sector | End sector
---------------------------------------------------------
1 | 00:00:00 | 12:19:00 | 0 | 55424
2 | 12:19:00 | 11:55:00 | 55425 | 109049
3 | 24:14:00 | 06:11:00 | 109050 | 136874
4 | 30:25:00 | 11:37:00 | 136875 | 189149
5 | 42:02:00 | 08:36:00 | 189150 | 227849
6 | 50:38:00 | 10:13:00 | 227850 | 273824
7 | 60:51:00 | 10:09:00 | 273825 | 319499
8 | 71:00:00 | 08:38:00 | 319500 | 358349
List of alternate offset correction values
# | Absolute | Relative | Confidence
------------------------------------------
1 | 696 | 29 | 2
AccurateRip Summary (DiscID: 00197b89-00a7ca34-6312aa08)
Track 01 : OK (v1, confidence 2/2, with different offset)
Track 02 : OK (v1, confidence 2/2, with different offset)
Track 03 : OK (v1, confidence 2/2, with different offset)
Track 04 : OK (v1, confidence 2/2, with different offset)
Track 05 : OK (v1, confidence 2/2, with different offset)
Track 06 : OK (v1, confidence 2/2, with different offset)
Track 07 : OK (v1, confidence 2/2, with different offset)
Track 08 : Not Found
->7 tracks accurately ripped, 1 track not found
All Tracks
Album gain : 5.48 dB
Peak : 1.000000
Statistics
Read error : 0
Jitter error (maybe fixed) : 0
Retry sector count : 0
Damaged sector count : 0
Track 01
Filename : /Users/gavinjcarney/Desktop/Movies/Claude Delangle, The Japanese Saxophone FLAC/01 Claude Delangle - West, or Evening Song in Autumn.flac
Pre-gap length : 00:02:00
Track gain : 9.81 dB
Peak : 0.999969
CRC32 hash (test run) : 5D45AD54
CRC32 hash : 5D45AD54
CRC32 hash (skip zero) : EB409598
AccurateRip v1 signature : 58EFDDD6 (837DEECF w/correction)
AccurateRip v2 signature : 17B7BFAE
->Accurately ripped with different offset (v1, confidence 2/2, offset +29)
Statistics
Read error : 0
Jitter error (maybe fixed) : 0
Retry sector count : 0
Damaged sector count : 0
Track 02
Filename : /Users/gavinjcarney/Desktop/Movies/Claude Delangle, The Japanese Saxophone FLAC/02 Claude Delangle - Arabesque III.flac
Track gain : 3.87 dB
Peak : 0.503540
CRC32 hash (test run) : 65A1264A
CRC32 hash : 65A1264A
CRC32 hash (skip zero) : 9E92F4BA
AccurateRip v1 signature : 724875C9 (61AACA26 w/correction)
AccurateRip v2 signature : 7625824D
->Accurately ripped with different offset (v1, confidence 2/2, offset +29)
Statistics
Read error : 0
Jitter error (maybe fixed) : 0
Retry sector count : 0
Damaged sector count : 0
Track 03
Filename : /Users/gavinjcarney/Desktop/Movies/Claude Delangle, The Japanese Saxophone FLAC/03 Claude Delangle - Mysterious Morning III.flac
Track gain : 1.87 dB
Peak : 0.458435
CRC32 hash (test run) : EE687840
CRC32 hash : EE687840
CRC32 hash (skip zero) : 078F40DA
AccurateRip v1 signature : 06ACA59A (3A6167B5 w/correction)
AccurateRip v2 signature : 9B7135C1
->Accurately ripped with different offset (v1, confidence 2/2, offset +29)
Statistics
Read error : 0
Jitter error (maybe fixed) : 0
Retry sector count : 0
Damaged sector count : 0
Track 04
Filename : /Users/gavinjcarney/Desktop/Movies/Claude Delangle, The Japanese Saxophone FLAC/04 Claude Delangle - Vertical Time Study II.flac
Track gain : 8.64 dB
Peak : 1.000000
CRC32 hash (test run) : 2826408F
CRC32 hash : 2826408F
CRC32 hash (skip zero) : E6C7392A
AccurateRip v1 signature : 5DF9FFD6 (F39145E9 w/correction)
AccurateRip v2 signature : 023DE93E
->Accurately ripped with different offset (v1, confidence 2/2, offset +29)
Statistics
Read error : 0
Jitter error (maybe fixed) : 0
Retry sector count : 0
Damaged sector count : 0
Track 05
Filename : /Users/gavinjcarney/Desktop/Movies/Claude Delangle, The Japanese Saxophone FLAC/05 Claude Delangle - Distance.flac
Track gain : 5.13 dB
Peak : 0.384949
CRC32 hash (test run) : A4743432
CRC32 hash : A4743432
CRC32 hash (skip zero) : 0A65B9C6
AccurateRip v1 signature : AC81B5CB (BAB28297 w/correction)
AccurateRip v2 signature : 335A20F4
->Accurately ripped with different offset (v1, confidence 2/2, offset +29)
Statistics
Read error : 0
Jitter error (maybe fixed) : 0
Retry sector count : 0
Damaged sector count : 0
Track 06
Filename : /Users/gavinjcarney/Desktop/Movies/Claude Delangle, The Japanese Saxophone FLAC/06 Claude Delangle - Pénombres VI.flac
Track gain : 6.16 dB
Peak : 0.539734
CRC32 hash (test run) : 3233180C
CRC32 hash : 3233180C
CRC32 hash (skip zero) : C5535FF0
AccurateRip v1 signature : 96006C49 (8824F57A w/correction)
AccurateRip v2 signature : 1C7DF50F
->Accurately ripped with different offset (v1, confidence 2/2, offset +29)
Statistics
Read error : 0
Jitter error (maybe fixed) : 0
Retry sector count : 0
Damaged sector count : 0
Track 07
Filename : /Users/gavinjcarney/Desktop/Movies/Claude Delangle, The Japanese Saxophone FLAC/07 Claude Delangle - Not I But The Wind….flac
Track gain : 6.98 dB
Peak : 0.495148
CRC32 hash (test run) : 2F0B10A9
CRC32 hash : 2F0B10A9
CRC32 hash (skip zero) : BA4CAD5E
AccurateRip v1 signature : E3AA2B3F (51586786 w/correction)
AccurateRip v2 signature : 0464D0BC
->Accurately ripped with different offset (v1, confidence 2/2, offset +29)
Statistics
Read error : 0
Jitter error (maybe fixed) : 0
Retry sector count : 0
Damaged sector count : 0
Track 08
Filename : /Users/gavinjcarney/Desktop/Movies/Claude Delangle, The Japanese Saxophone FLAC/08 Claude Delangle - Night Bird.flac
Track gain : 5.96 dB
Peak : 0.354553
CRC32 hash (test run) : 8000B6C6
CRC32 hash : 8000B6C6
CRC32 hash (skip zero) : 80F7D917
AccurateRip v1 signature : 80886B4F
AccurateRip v2 signature : E58D456E
->Track not present in AccurateRip database.
Statistics
Read error : 0
Jitter error (maybe fixed) : 0
Retry sector count : 0
Damaged sector count : 0
No errors occurred
End of status report

Содержание индексной карты (.CUE)

TITLE "The Japanese Saxophone"
PERFORMER "Claude Delangle"
CATALOG 7318590008904
REM DATE "1998"
REM DISCID 6312AA08
REM REPLAYGAIN_ALBUM_GAIN 5.48 dB
REM REPLAYGAIN_ALBUM_PEAK 1.000000
FILE "01. West, or Evening Song In Autumn.flac" WAVE
TRACK 01 AUDIO
TITLE "West, or Evening Song In Autumn"
SONGWRITER "Mazakusa Natsuda"
ISRC SEAEI9790010
REM REPLAYGAIN_TRACK_GAIN 9.81 dB
REM REPLAYGAIN_TRACK_PEAK 0.999969
INDEX 01 00:00:00
FILE "02. Arabesque III.flac" WAVE
TRACK 02 AUDIO
TITLE "Arabesque III"
SONGWRITER "Ichiro Nodaira"
ISRC SEAEI9790020
REM REPLAYGAIN_TRACK_GAIN 3.87 dB
REM REPLAYGAIN_TRACK_PEAK 0.503540
INDEX 01 00:00:00
FILE "03. Mysterious Morning III.flac" WAVE
TRACK 03 AUDIO
TITLE "Mysterious Morning III"
SONGWRITER "Fuminori Tanada"
ISRC SEAEI9790030
REM REPLAYGAIN_TRACK_GAIN 1.87 dB
REM REPLAYGAIN_TRACK_PEAK 0.458435
INDEX 01 00:00:00
FILE "04. Vertical Time Study II.flac" WAVE
TRACK 04 AUDIO
TITLE "Vertical Time Study II"
SONGWRITER "Toshio Hosokawa"
ISRC SEAEI9790040
REM REPLAYGAIN_TRACK_GAIN 8.64 dB
REM REPLAYGAIN_TRACK_PEAK 1.000000
INDEX 01 00:00:00
FILE "05. Distance.flac" WAVE
TRACK 05 AUDIO
TITLE "Distance"
SONGWRITER "Tōru Takemitsu"
ISRC SEAEG9340100
REM REPLAYGAIN_TRACK_GAIN 5.13 dB
REM REPLAYGAIN_TRACK_PEAK 0.384949
INDEX 01 00:00:00
FILE "06. Pénombres VI.flac" WAVE
TRACK 06 AUDIO
TITLE "Pénombres VI"
SONGWRITER "Yoshihisa Taïra"
ISRC SEAEI9790060
REM REPLAYGAIN_TRACK_GAIN 6.16 dB
REM REPLAYGAIN_TRACK_PEAK 0.539734
INDEX 01 00:00:00
FILE "07. Not I But The Wind....flac" WAVE
TRACK 07 AUDIO
TITLE "Not I But The Wind..."
SONGWRITER "Joji Yuasa"
ISRC SEAEI9790070
REM REPLAYGAIN_TRACK_GAIN 6.98 dB
REM REPLAYGAIN_TRACK_PEAK 0.495148
INDEX 01 00:00:00
FILE "08. Night Bird.flac" WAVE
TRACK 08 AUDIO
TITLE "Night Bird"
SONGWRITER "Karen Tanaka"
ISRC SEAEI9790080
REM REPLAYGAIN_TRACK_GAIN 5.96 dB
REM REPLAYGAIN_TRACK_PEAK 0.354553
INDEX 01 00:00:00



Показать сообщения:    

Текущее время: 02-Дек 21:12

Часовой пояс: UTC + 3


Вы не можете начинать темы
Вы не можете отвечать на сообщения
Вы не можете редактировать свои сообщения
Вы не можете удалять свои сообщения
Вы не можете голосовать в опросах
Вы не можете прикреплять файлы к сообщениям
Вы не можете скачивать файлы