[TR24][OF] J.S. Bach - Italian Concerto; French Overture; Aria Variata - (Vladimir Ashkenazy / Владимир Ашкенази) - 2014 (Classical, Piano)


Статистика раздачи [Обновить пиров]
Размер:  1.2 GB   |    Зарегистрирован:  8 месяцев 14 дней   |    Скачан:  0 раз

Полного источника не было: Никогда

 
   
 
 
 

[Цитировать]

J.S. Bach
Italian Concerto · French Overture · Aria Variata
Vladimir Ashkenazy
- Год издания: 2014
Жанр: Classical, Piano
Издатель (лейбл): Decca
Продолжительность: 01:07:32
Наличие сканов: Sleeve, Digital Booklet
- -
Johann Sebastian Bach (1685-1750)
Partita (French Overture) in B Minor, BWV 831
01. 1. Ouverture (12:53)
02. 2. Courante (1:53)
03. 3. Gavotte I-II (3:19)
04. 4. Passepied I-II (2:29)
05. 5. Sarabande (2:59)
06. 6. Bourrée I-II (2:39)
07. 7. Gigue (2:17)
08. 8. Echo (2:47)
Aria variata alla maniera italiana, in A Minor, BWV 989
09. Aria (1:53)
10. Variatio I. Largo (1:29)
11. Variatio II (1:00)
12. Variatio III (0:58)
13. Variatio IV. Allegro (1:01)
14. Variatio V. Un poco allegro (1:06)
15. Variatio VI. Andante (1:34)
16. Variatio VII. Un poco allegro (1:09)
17. Variatio VIII. Allegro (0:52)
18. Variatio IX (0:52)
19. Variatio X (2:12)
Concerto in D Minor, BWV 974
After an Oboe Concerto by Alessandro Marcello (1685-1750)
20. 1. Allegro (2:29)
21. 2. Adagio (3:51)
22. 3. Presto (3:43)
Italian Concerto in F, BWV 971
23. 1. (Allegro) (3:41)
24. 2. Andante (4:46)
25. 3. Presto (3:40)
-Vladimir Ashkenazy, piano
Recorded October 28 & 29, 2013 at Potton Hall in Suffolk, UK
-Контейнер: FLAC (*.flac)
Тип рипа: tracks
Разрядность: 24bit / 96kHz
Количество каналов: 2.0
-О релизе
2010 Decca released "6 Partitas" of Johann Sebastian Bach, clearly and imaginatively interpreted by Vladimir Ashkenazy. Now the pianist returns with the second part of Bach's cycle "Keyboard exercise", consisting of the Italian Concerto in F major and the French Overture in B minor, back. The album is completed by the rarely recorded "Aria Variata Alla Italiana Maniera" in A minor and the masterful editing of the Concerto for Oboe by Alessandro Marcello.
"Italian Concerto & French Overture" - a highly recommended album for long autumn evenings.

ОтчётыДинамический диапазон

foobar2000 1.2.2 / Dynamic Range Meter 1.1.1
log date: 2015-04-16 21:41:43
--------------------------------------------------------------------------------
Analyzed: Vladimir Ashkenazy / Bach, J.S.: Italian Concerto; French Overture; Aria Variata
--------------------------------------------------------------------------------
DR Peak RMS Duration Track
--------------------------------------------------------------------------------
DR13 -0.86 dB -17.33 dB 12:53 ?-Partita (French Overture) in B Minor, BWV 831 - 1. Ouverture
DR12 -3.14 dB -17.63 dB 1:53 ?-Partita (French Overture) in B Minor, BWV 831 - 2. Courante
DR13 -2.44 dB -19.34 dB 3:19 ?-Partita (French Overture) in B Minor, BWV 831 - 3. Gavotte I-II
DR12 -4.82 dB -19.57 dB 2:29 ?-Partita (French Overture) in B Minor, BWV 831 - 4. Passepied I-II
DR12 -6.57 dB -22.34 dB 2:59 ?-Partita (French Overture) in B Minor, BWV 831 - 5. Sarabande
DR12 -1.45 dB -18.69 dB 2:39 ?-Partita (French Overture) in B Minor, BWV 831 - 6. Bourrée I-II
DR13 -2.23 dB -17.23 dB 2:17 ?-Partita (French Overture) in B Minor, BWV 831 - 7. Gigue
DR13 -1.70 dB -17.64 dB 2:47 ?-Partita (French Overture) in B Minor, BWV 831 - 8. Echo
DR12 -6.39 dB -21.16 dB 1:53 ?-Aria variata alla maniera italiana, in A Minor, BWV 989 - Aria
DR11 -6.77 dB -20.91 dB 1:29 ?-Aria variata alla maniera italiana, in A Minor, BWV 989 - Variatio I. Largo
DR10 -6.35 dB -19.45 dB 1:00 ?-Aria variata alla maniera italiana, in A Minor, BWV 989 - Variatio II
DR11 -4.20 dB -17.48 dB 0:58 ?-Aria variata alla maniera italiana, in A Minor, BWV 989 - Variatio III
DR11 -3.61 dB -17.25 dB 1:01 ?-Aria variata alla maniera italiana, in A Minor, BWV 989 - Variatio IV. Allegro
DR11 -5.60 dB -19.15 dB 1:06 ?-Aria variata alla maniera italiana, in A Minor, BWV 989 - Variatio V. Un poco allegro
DR12 -6.05 dB -21.29 dB 1:34 ?-Aria variata alla maniera italiana, in A Minor, BWV 989 - Variatio VI. Andante
DR11 -4.79 dB -18.79 dB 1:09 ?-Aria variata alla maniera italiana, in A Minor, BWV 989 - Variatio VII. Un poco allegro
DR11 -4.19 dB -18.02 dB 0:52 ?-Aria variata alla maniera italiana, in A Minor, BWV 989 - Variatio VIII. Allegro
DR11 -1.88 dB -15.06 dB 0:52 ?-Aria variata alla maniera italiana, in A Minor, BWV 989 - Variatio IX
DR13 -4.63 dB -22.05 dB 2:12 ?-Aria variata alla maniera italiana, in A Minor, BWV 989 - Variatio X
DR12 -0.79 dB -16.54 dB 2:29 ?-Concerto in D Minor, BWV 974 - 1. Allegro
DR13 -10.75 dB -26.96 dB 3:51 ?-Concerto in D Minor, BWV 974 - 2. Adagio
DR12 -1.09 dB -16.89 dB 3:43 ?-Concerto in D Minor, BWV 974 - 3. Presto
DR14 -0.01 dB -17.59 dB 3:41 ?-Italian Concerto in F, BWV 971 - 1. (Allegro)
DR12 -7.96 dB -25.54 dB 4:46 ?-Italian Concerto in F, BWV 971 - 2. Andante
DR13 -0.46 dB -16.94 dB 3:40 ?-Italian Concerto in F, BWV 971 - 3. Presto
--------------------------------------------------------------------------------
Number of tracks: 25
Official DR value: DR12
Samplerate: 96000 Hz
Channels: 2
Bits per sample: 24
Bitrate: 2554 kbps
Codec: FLAC
================================================================================

Скриншот спектра частот

Доп. информация

При скачивании, если необходимо, переименуйте папку, в которой будет находиться альбомБольшая просьба к скачавшим поддерживать раздачу! Помогайте другим, ведь вам тоже может понадобиться помощь!Не забываем говорить "Спасибо"!Комментарии приветствуются!
[teatrix.ru].t20953.torrent 
Торрент: Зарегистрирован [ 2016-03-20 00:57 ] · 00C8F4FD64C38F57A0DCB01931CC69095F581A91

Скачать .torrent

Скачать

15 KB

Статус: проверено
Скачан: 0 раз
Размер: 1.2 GB
terms.php



Быстрый ответ

Имя:

      
Для отправки сообщений необходимо включить JavaScript
Показать сообщения:    

Текущее время: 03-Дек 09:50

Часовой пояс: UTC + 3


Вы можете начинать темы
Вы можете отвечать на сообщения
Вы не можете редактировать свои сообщения
Вы не можете удалять свои сообщения
Вы не можете голосовать в опросах
Вы не можете прикреплять файлы к сообщениям
Вы можете скачивать файлы