Большие родители. Владимир Комаров [2002, документальный, TVRip]


Статистика раздачи [Обновить пиров]
Размер:  512 MB   |    Зарегистрирован:  8 месяцев 22 дня   |    Скачан:  0 раз

Полного источника не было: Никогда

 
   
 
 
 

[Цитировать]

Большие родители. Владимир Комаров
Дата/Год выпуска: 2002
Страна: Россия
Жанр: документальный
Продолжительность: 00:38:57
Перевод: Не требуется
Описание: Космонавтами не рождаются. Ими становятся. И в том, что Владимир Комаров вошел в число первых космопроходцев, есть явная закономерность, а не лотерейная удача. Совершенно очевидно, что пионеру космоса нужно обладать теми нравственными чертами, которые олицетворяют подвиг и простое мужество превращают в героизм. Владимир Комаров был именно таким человеком: он не любил высоких слов, но обладал высокими чувствами.
Доп. информация: Передача "Большие Родители" включала в себя цикл историй, посвященных жизни известных в нашей стране людей, оставивших в 20–м веке свой след в отечественной истории и культуре. Это революционеры и партийные лидеры, военачальники гражданской и Великой Отечественной войн, ученые, актеры, режиссеры, музыканты, писатели. Ведущий передачи Константин Смирнов встречался с детьми этих людей. Они рассказывали о своих родителях, о времени, в котором им довелось жить.
В передачах использованы редкие кадры архивной хроники, материалы, раскрывающие перед зрителями малоизвестных факты из биографии знаменитых в прошлом людей.
Сэмпл: http://sendfile.su/1108746
качество: TVRip
формат: AVI
Видео: DivX, 1700 Кбит/сек, 704 x 528 (1.333), 25.000 fps
Аудио: МР3, 128 Кбит/сек, 2 канала, 48,0 КГц

MediaInfo

Полное имя                               : T:\Мои раздачи\Большие родители. Владимир Комаров (2002)\Большие родители. Владимир Комаров (2002).avi
Формат : AVI
Формат/Информация : Audio Video Interleave
Размер файла : 512 Мбайт
Продолжительность : 38 м.
Общий поток : 1837 Кбит/сек
Программа кодирования : VirtualDubMod 1.5.10.2 (build 2540/release)
Библиотека кодирования : VirtualDubMod build 2540/release
Видео
Идентификатор : 0
Формат : MPEG-4 Visual
Профиль формата : Advanced Simple@L5
Параметр BVOP формата : 2
Параметр QPel формата : Нет
Параметр GMC формата : Без точки перехода
Параметр матрицы формата : Default (H.263)
Идентификатор кодека : XVID
Идентификатор кодека/Подсказка : XviD
Продолжительность : 38 м.
Битрейт : 1700 Кбит/сек
Ширина : 704 пикселя
Высота : 528 пикселей
Соотношение сторон : 4:3
Частота кадров : 25,000 кадров/сек
Цветовое пространство : YUV
Субдискретизация насыщенности : 4:2:0
Битовая глубина : 8 бит
Тип развёртки : Прогрессивная
Метод сжатия : С потерями
Бит/(Пиксели*Кадры) : 0.183
Размер потока : 474 Мбайт (93%)
Библиотека кодирования : XviD 1.2.1 (UTC 2008-12-04)
Аудио
Идентификатор : 1
Формат : MPEG Audio
Версия формата : Version 1
Профиль формата : Layer 3
Идентификатор кодека : 55
Идентификатор кодека/Подсказка : MP3
Продолжительность : 38 м.
Вид битрейта : Постоянный
Битрейт : 128 Кбит/сек
Каналы : 2 канала
Частота : 48,0 КГц
Метод сжатия : С потерями
Размер потока : 35,6 Мбайт (7%)
Выравнивание : Соединение по промежуткам
Продолжительность промежутка : 40 мс. (1,00 видеокадр)
Время предзагрузки промежутка : 504 мс.
Библиотека кодирования : LAME3.98r
Настройки программы : -m s -V 4 -q 2 -lowpass 17 -b 128

Скриншоты

[teatrix.ru].t20954.torrent 
Торрент: Зарегистрирован [ 2016-03-20 00:57 ] · 4F78D8E6CCAC6B4B4BE3B6F7F5AA19DA6432A10A

Скачать .torrent

Скачать

20 KB

Статус: проверено
Скачан: 0 раз
Размер: 512 MB
terms.php



Быстрый ответ

Имя:

      
Для отправки сообщений необходимо включить JavaScript
Показать сообщения:    

Текущее время: 11-Дек 05:21

Часовой пояс: UTC + 3


Вы можете начинать темы
Вы можете отвечать на сообщения
Вы не можете редактировать свои сообщения
Вы не можете удалять свои сообщения
Вы не можете голосовать в опросах
Вы не можете прикреплять файлы к сообщениям
Вы можете скачивать файлы