Таисия Повалий и Ирина Билык - «Моя правда. История украинского шоу-бизнеса. Рабыни любви» (Эфир от 13.04.2015) [2015 г., Ток-Шоу, DVB]


Статистика раздачи [Обновить пиров]
Размер:  1.05 GB   |    Зарегистрирован:  8 месяцев 21 день   |    Скачан:  0 раз

Полного источника не было: Никогда

 
   
 
 
 

[Цитировать]

Таисия Повалий и Ирина Билык - «Моя правда. История украинского шоу-бизнеса. Рабыни любви» (Эфир от 13.04.2015)
Страна: Украина
Жанр: Ток-Шоу
Продолжительность: 00:46:38
Язык: Украинский и русский
Год выпуска: 2015 г.
Выпущено: Украина, Телеканал "СТБ".
Описание: Это шоу в котором жизнь героев программы похожа на яркую вспышку звезды. Ими увлекаются, их боготворят и подражают им. Они стали кумирами миллионов поклонников в разных странах и остаются ими и по сей день.
В этой программе две истории, двух мега-див украинского шоу-бизнеса: На что готовы звезды ради любви? Что стоит за популярностью? А так же много вопросов, много тайн таких похожих и очень разных Таисии Повалий и Ирины Билык.-Источник: Собственный рип
Доп. информация: Рип чистый. Без посторонних надписей. Выкладывается как есть.

Сэмпл: https://yadi.sk/i/vDgqrrPtg3rek
Качество: DVB
Контейнер: MPEG-PS
Видео кодек: MPEG2
Аудио кодек: MPEG1
Видео: MPEG2 720x576 (4:3) 25.00fps 3 212 Kbps, 0.310 bit/pixel
Аудио: MPEG1 48000Hz stereo 192 Кбит/сек

Скриншоты

Скринлист

MediaInfo

Общее
Полное имя : D:\Раздачи\Моя правда\Моя правда. История украинского шоу-бизнеса. Ирина Билык и Таисия Повалий. Рабыни любви (2015, DVB, Ток-Шоу, Эфир от 13.04.2015) .mpg
Формат : MPEG-PS
Размер файла : 1,05 Гбайт
Продолжительность : 46 м.
Режим общего битрейта : Переменный
Общий поток : 3212 Кбит/сек
Видео
Идентификатор : 224 (0xE0)
Формат : MPEG Video
Версия формата : Version 2
Профиль формата : Main@Main
Параметр BVOP формата : Нет
Параметр матрицы формата : По умолчанию
Параметр GOP формата : N=12
Продолжительность : 46 м.
Вид битрейта : Переменный
Битрейт : 2957 Кбит/сек
Максимальный битрейт : 9000 Кбит/сек
Ширина : 720 пикселей
Высота : 576 пикселей
Соотношение сторон : 4:3
Частота кадров : 25,000 кадров/сек
Стандарт вещания : PAL
Цветовое пространство : YUV
Субдискретизация насыщенности : 4:2:0
Битовая глубина : 8 бит
Тип развёртки : Прогрессивная
Метод сжатия : С потерями
Бит/(Пиксели*Кадры) : 0.285
Временной код первого кадра : 00:00:00:00
Оригинал временного кода : Group of pictures header
Размер потока : 986 Мбайт (92%)
Аудио
Идентификатор : 192 (0xC0)
Формат : MPEG Audio
Версия формата : Version 1
Профиль формата : Layer 2
Продолжительность : 46 м.
Вид битрейта : Постоянный
Битрейт : 192 Кбит/сек
Каналы : 2 канала
Частота : 48,0 КГц
Метод сжатия : С потерями
Размер потока : 64,0 Мбайт (6%)

[teatrix.ru].t20955.torrent 
Торрент: Зарегистрирован [ 2016-03-20 00:57 ] · FC292A822F58EB1973C5631C0D87067EDE2A690E

Скачать .torrent

Скачать

11 KB

Статус: проверено
Скачан: 0 раз
Размер: 1.05 GB
terms.php



Быстрый ответ

Имя:

      
Для отправки сообщений необходимо включить JavaScript
Показать сообщения:    

Текущее время: 10-Дек 15:48

Часовой пояс: UTC + 3


Вы можете начинать темы
Вы можете отвечать на сообщения
Вы не можете редактировать свои сообщения
Вы не можете удалять свои сообщения
Вы не можете голосовать в опросах
Вы не можете прикреплять файлы к сообщениям
Вы можете скачивать файлы