(Sacred, Messe) Gioachino Rossini - Petite Messe solennelle / Джоаккино Россини - Маленькая торжественная месса (Riccardo Chailly; Daniella Dessi, Gloria Scalchi, Giuseppe Sabbatini, Michele Pertusi) - 1995, FLAC (image+.cue), lossless


Статистика раздачи [Обновить пиров]
Размер:  336 MB   |    Зарегистрирован:  8 месяцев 21 день   |    Скачан:  0 раз

Полного источника не было: Никогда

 
   
 
 
 

[Цитировать]

Gioachino Rossini - Petite Messe solennelle / Джоаккино Россини - Маленькая торжественная месса (Riccardo Chailly; Daniella Dessì, Gloria Scalchi, Giuseppe Sabbatini, Michele Pertusi)
Жанр: Sacred, Messe
Страна-производитель диска: Германия
Год издания диска: 1995
Издатель (лейбл): DECCA
Дата записи: 1993
Аудиокодек: FLAC
Тип рипа: image+.cue
Битрейт аудио: lossless
Продолжительность: 83:44
Источник: OdeonMusico
Наличие сканов в содержимом раздачи: да
Исполнители:
Daniella Dessì - soprano,
Gloria Scalchi - mezzo-soprano,
Giuseppe Sabbatini - tenor,
Michele Pertusi - bass.
Riccardo Chailly - Conductor,
Coro del Teatro Comunale di Bologna,
Orchestra del Teatro Comunale di Bologna.
For soloists, 2 pianos, harmonium & choir (orch. Rossini).
Recorded at Teatro Comunale di Bologna, May 1993.

Лог создания рипаЛог создания рипа CD 1

Exact Audio Copy V1.0 beta 3 from 29. August 2011
EAC extraction logfile from 25. April 2013, 20:33
Riccardo Chailly / Rossini - Petite Messe solennelle - Chailly (Disc 1)
Used drive : TSSTcorpCDDVDW SH-222BB Adapter: 2 ID: 1
Read mode : Secure
Utilize accurate stream : Yes
Defeat audio cache : Yes
Make use of C2 pointers : No
Read offset correction : 6
Overread into Lead-In and Lead-Out : No
Fill up missing offset samples with silence : Yes
Delete leading and trailing silent blocks : No
Null samples used in CRC calculations : Yes
Used interface : Native Win32 interface for Win NT & 2000
Used output format : User Defined Encoder
Selected bitrate : 1024 kBit/s
Quality : High
Add ID3 tag : No
Command line compressor : C:\Program Files\Exact Audio Copy\Flac\flac.exe
Additional command line options : -8 -V -T "TITLE=%title%" -T "ARTIST=%artist%" -T "ALBUMARTIST=%albumartist%" -T "ALBUM=%albumtitle%" -T "DATE=%year%" -T "TRACKNUMBER=%tracknr%" -T "TRACKTOTAL=%numtracks%" -T "GENRE=%genre%" -T "COMMENT=%comment%" -T "PERFORMER=%albuminterpret%" -T "COMPOSER=%composer%" %source% -o %dest%
TOC of the extracted CD
Track | Start | Length | Start sector | End sector
---------------------------------------------------------
1 | 0:00.33 | 6:49.40 | 33 | 30747
2 | 6:49.73 | 2:43.05 | 30748 | 42977
3 | 9:33.03 | 4:50.25 | 42978 | 64752
4 | 14:23.28 | 5:19.50 | 64753 | 88727
5 | 19:43.03 | 6:58.17 | 88728 | 120094
6 | 26:41.20 | 7:20.18 | 120095 | 153112
7 | 34:01.38 | 5:37.07 | 153113 | 178394
Range status and errors
Selected range
Filename G:\Ripped general\[3041] Rossini – Petite Messe solennelle – Chailly\cd1\Rossini - Petite Messe solennelle - Chailly (Disc 1).wav
Peak level 97.1 %
Extraction speed 2.3 X
Range quality 100.0 %
Test CRC B544CF0F
Copy CRC B544CF0F
Copy OK
No errors occurred
AccurateRip summary
Track 1 accurately ripped (confidence 2) [B73AFAB8] (AR v2)
Track 2 accurately ripped (confidence 2) [70A00AA9] (AR v2)
Track 3 accurately ripped (confidence 2) [2F36DFE0] (AR v2)
Track 4 accurately ripped (confidence 2) [70C498F8] (AR v2)
Track 5 accurately ripped (confidence 2) [9DF02E2C] (AR v2)
Track 6 accurately ripped (confidence 2) [AB9B555F] (AR v2)
Track 7 accurately ripped (confidence 2) [4EDAFC5B] (AR v2)
All tracks accurately ripped
End of status report

Лог создания рипа CD 2

Exact Audio Copy V1.0 beta 3 from 29. August 2011
EAC extraction logfile from 25. April 2013, 21:13
Riccardo Chailly / Rossini - Petite Messe solennelle - Chailly (Disc 2)
Used drive : TSSTcorpCDDVDW SH-222BB Adapter: 2 ID: 1
Read mode : Secure
Utilize accurate stream : Yes
Defeat audio cache : Yes
Make use of C2 pointers : No
Read offset correction : 6
Overread into Lead-In and Lead-Out : No
Fill up missing offset samples with silence : Yes
Delete leading and trailing silent blocks : No
Null samples used in CRC calculations : Yes
Used interface : Native Win32 interface for Win NT & 2000
Used output format : User Defined Encoder
Selected bitrate : 1024 kBit/s
Quality : High
Add ID3 tag : No
Command line compressor : C:\Program Files\Exact Audio Copy\Flac\flac.exe
Additional command line options : -8 -V -T "TITLE=%title%" -T "ARTIST=%artist%" -T "ALBUMARTIST=%albumartist%" -T "ALBUM=%albumtitle%" -T "DATE=%year%" -T "TRACKNUMBER=%tracknr%" -T "TRACKTOTAL=%numtracks%" -T "GENRE=%genre%" -T "COMMENT=%comment%" -T "PERFORMER=%albuminterpret%" -T "COMPOSER=%composer%" %source% -o %dest%
TOC of the extracted CD
Track | Start | Length | Start sector | End sector
---------------------------------------------------------
1 | 0:00.33 | 4:01.27 | 33 | 18134
2 | 4:01.60 | 3:19.58 | 18135 | 33117
3 | 7:21.43 | 8:57.40 | 33118 | 73432
4 | 16:19.08 | 8:37.30 | 73433 | 112237
5 | 24:56.38 | 3:58.67 | 112238 | 130154
6 | 28:55.30 | 6:09.68 | 130155 | 157897
7 | 35:05.23 | 7:49.52 | 157898 | 193124
Range status and errors
Selected range
Filename G:\Ripped general\[3041] Rossini – Petite Messe solennelle – Chailly\cd2\Rossini - Petite Messe solennelle - Chailly (Disc 2).wav
Peak level 96.9 %
Extraction speed 2.3 X
Range quality 99.9 %
Test CRC 93EA0505
Copy CRC 93EA0505
Copy OK
No errors occurred
AccurateRip summary
Track 1 accurately ripped (confidence 2) [872B013F] (AR v2)
Track 2 accurately ripped (confidence 2) [AA51AF6C] (AR v2)
Track 3 accurately ripped (confidence 2) [B9F0D69C] (AR v2)
Track 4 accurately ripped (confidence 2) [976CE2B7] (AR v2)
Track 5 accurately ripped (confidence 2) [7A0B0CC7] (AR v2)
Track 6 accurately ripped (confidence 2) [930A5C67] (AR v2)
Track 7 accurately ripped (confidence 2) [665F2B31] (AR v2)
All tracks accurately ripped
End of status report

Содержание индексной карты (.CUE)Содержание индексной карты (.CUE) CD 1

REM GENRE Classical
REM DATE 1995
REM DISCID 4E094A07
REM COMMENT "ExactAudioCopy v1.0b3"
PERFORMER "Riccardo Chailly"
TITLE "Rossini - Petite Messe solennelle - Chailly (Disc 1)"
FILE "Rossini - Petite Messe solennelle - Chailly (Disc 1).flac" WAVE
TRACK 01 AUDIO
TITLE "Petite messe solennelle, for soloists, 2 pianos, harmonium & choir: Kyrie - C..."
PERFORMER "Orchestra del Teatro Comunale di Bologna, Riccardo Chailly & Coro del Teatro ..."
INDEX 00 00:00:00
INDEX 01 00:00:33
TRACK 02 AUDIO
TITLE "Petite messe solennelle, for soloists, 2 pianos, harmonium & choir: Gloria"
PERFORMER "Orchestra del Teatro Comunale di Bologna, Riccardo Chailly & Coro del Teatro ..."
INDEX 00 06:47:61
INDEX 01 06:49:73
TRACK 03 AUDIO
TITLE "Petite messe solennelle, for soloists, 2 pianos, harmonium & choir: Gratias"
PERFORMER "Orchestra del Teatro Comunale di Bologna, Riccardo Chailly & Coro del Teatro ..."
INDEX 00 09:30:44
INDEX 01 09:33:03
TRACK 04 AUDIO
TITLE "Petite messe solennelle, for soloists, 2 pianos, harmonium & choir: Domine Deus"
PERFORMER "Orchestra del Teatro Comunale di Bologna, Riccardo Chailly & Coro del Teatro ..."
INDEX 00 14:20:64
INDEX 01 14:23:28
TRACK 05 AUDIO
TITLE "Petite messe solennelle, for soloists, 2 pianos, harmonium & choir: Qui tollis"
PERFORMER "Orchestra del Teatro Comunale di Bologna, Riccardo Chailly & Coro del Teatro ..."
INDEX 00 19:40:24
INDEX 01 19:43:03
TRACK 06 AUDIO
TITLE "Petite messe solennelle, for soloists, 2 pianos, harmonium & choir: Quoniam"
PERFORMER "Orchestra del Teatro Comunale di Bologna, Riccardo Chailly & Coro del Teatro ..."
INDEX 01 26:41:20
TRACK 07 AUDIO
TITLE "Petite messe solennelle, for soloists, 2 pianos, harmonium & choir: Cum Sanct..."
PERFORMER "Orchestra del Teatro Comunale di Bologna, Riccardo Chailly & Coro del Teatro ..."
INDEX 01 34:01:38

Содержание индексной карты (.CUE) CD 2

REM GENRE Classical
REM DATE 1993
REM DISCID 5A0A0F07
REM COMMENT "ExactAudioCopy v1.0b3"
PERFORMER "Riccardo Chailly"
TITLE "Rossini - Petite Messe solennelle - Chailly (Disc 2)"
FILE "Rossini - Petite Messe solennelle - Chailly (Disc 2).flac" WAVE
TRACK 01 AUDIO
TITLE "Credo in unum Deum"
PERFORMER "Riccardo Chailly"
INDEX 00 00:00:00
INDEX 01 00:00:33
TRACK 02 AUDIO
TITLE "Crucifixus etiam pro nobis"
PERFORMER "Riccardo Chailly"
INDEX 00 04:01:10
INDEX 01 04:01:60
TRACK 03 AUDIO
TITLE "Et resurrexit"
PERFORMER "Riccardo Chailly"
INDEX 00 07:21:20
INDEX 01 07:21:43
TRACK 04 AUDIO
TITLE "Preludio religioso"
PERFORMER "Riccardo Chailly"
INDEX 00 16:17:10
INDEX 01 16:19:08
TRACK 05 AUDIO
TITLE "Sanctus"
PERFORMER "Riccardo Chailly"
INDEX 01 24:56:38
TRACK 06 AUDIO
TITLE "O Saluratis hostia"
PERFORMER "Riccardo Chailly"
INDEX 00 28:52:63
INDEX 01 28:55:30
TRACK 07 AUDIO
TITLE "Agnus Dei"
PERFORMER "Riccardo Chailly"
INDEX 00 35:00:60
INDEX 01 35:05:23

Треклист

Disc 1:
1. Kyrie eleison - Christe eleison [06:45];
2. Gloria in excelsis Deo [02:40];
3. Gratias agimus tibi [04:47];
4. Domine Deus [05:17];
5. Qui tollis peccata mundi [06:55];
6. Quoniam tu solus sanctus [07:19];
7. Cum Sancto Spiritu [05:33];
Disc 2:
1. Credo in unum Deum [03:58];
2. Crucifixus etiam pro nobis [05:15];
3. Et resurrexit [08:54];
4. Preludio religioso [08:36];
5. Sanctus [03:55];
6. O salutaris hostia [06:05];
7. Agnus Dei [07:45].
[teatrix.ru].t20956.torrent 
Торрент: Зарегистрирован [ 2016-03-20 00:57 ] · E9E84A569B7CDCA3B88BA3EA5F80FA3DB145F69E

Скачать .torrent

Скачать

15 KB

Статус: проверено
Скачан: 0 раз
Размер: 336 MB
terms.php



Быстрый ответ

Имя:

      
Для отправки сообщений необходимо включить JavaScript
Показать сообщения:    

Текущее время: 10-Дек 11:57

Часовой пояс: UTC + 3


Вы можете начинать темы
Вы можете отвечать на сообщения
Вы не можете редактировать свои сообщения
Вы не можете удалять свои сообщения
Вы не можете голосовать в опросах
Вы не можете прикреплять файлы к сообщениям
Вы можете скачивать файлы