(Opera) Offenbach - Salon Pitzelberger (Neukirch, Suss, Hoff, Hellmich - Chor der Deutschen Staatsoper Berlin / Staatskapelle Berlin, Hanell) - 1998, APE (image+.cue) lossless


 

[Цитировать]

Jacques Offenbach - Salon Pitzelberger
Жанр: Opera
Страна-производитель диска: Germany
Год издания диска: 1998
Издатель (лейбл): Berlin Classics
Номер по каталогу: 0020872BC
Дата записи: 1970
Аудиокодек: APE
Тип рипа: image+.cue
Битрейт аудио: lossless
Продолжительность: 41'57
Источник: собственный рип
Наличие сканов в содержимом раздачи: да
Треклист:
1. Vorspiel
2. Nr. 1 Couplet: Diesen Abend werd ich nie vergessen
3. Wie froh bin ich
4. Nr. 2 Bolero: Ich spreche von meinem Geliebten
5. Pedro mit seinem schnellen Karren
6. Nr. 3 Couplet: Ich sollte den Mann nicht heiraten
7. Die weise, gütige Natur
8. Nun mach schon
9. Nr. 4 Terzett: Papa, ich rette dich
10. Casimir! Casimir! Casimir!
11. Nr. 5 Ensemble: Also bei aller Liebe
12. Monsieur, das ist ja ein herrliches Getränk
13. Wir sind da, eingeladen
14. Nr. 6 Terzett: Und während ich mit Casimir
15. Italia la bella! Campagna di Roma!
16. Nr. 7 Finale: Im Nebenzimmer legten wir schnell
17. Ja, der Gesang so schön und prächtig
Исполнители:
Jacques Offenbach - Salon Pitzelberger
Harald Neukirch (Tenor)
Reiner Süss (Bass)
Renate Hoff (Soprano)
Wolfgang Hellmich (bariton)
Hannerose Katterfield (alto)
Chor der Deutschen Staatsoper Berlin
Staatskapelle Berlin
Conductor: Robert Hanell
Language: German

Лог создания рипа

Exact Audio Copy V1.0 beta 3 from 29. August 2011
EAC extraction logfile from 31. July 2014, 21:50
Offenbach / Salon Pitzelberger, Hanell
Used drive : HL-DT-STDVDRAM GH22NS50 Adapter: 0 ID: 2
Read mode : Secure
Utilize accurate stream : Yes
Defeat audio cache : Yes
Make use of C2 pointers : No
Read offset correction : 667
Overread into Lead-In and Lead-Out : No
Fill up missing offset samples with silence : Yes
Delete leading and trailing silent blocks : No
Null samples used in CRC calculations : Yes
Used interface : Native Win32 interface for Win NT & 2000
Used output format : Monkey's Audio Lossless Encoder
Selected bitrate : High Lossless Compression
Quality : High
Add ID3 tag : No
Command line compressor : C:\Program Files (x86)\Exact Audio Copy\MAC\MAC.exe
TOC of the extracted CD
Track | Start | Length | Start sector | End sector
---------------------------------------------------------
1 | 0:00.00 | 2:23.57 | 0 | 10781
2 | 2:23.57 | 0:21.28 | 10782 | 12384
3 | 2:45.10 | 2:09.42 | 12385 | 22101
4 | 4:54.52 | 2:36.45 | 22102 | 33846
5 | 7:31.22 | 2:43.23 | 33847 | 46094
6 | 10:14.45 | 3:04.37 | 46095 | 59931
7 | 13:19.07 | 1:16.25 | 59932 | 65656
8 | 14:35.32 | 2:15.43 | 65657 | 75824
9 | 16:51.00 | 0:13.27 | 75825 | 76826
10 | 17:04.27 | 5:52.23 | 76827 | 103249
11 | 22:56.50 | 2:02.07 | 103250 | 112406
12 | 24:58.57 | 1:11.38 | 112407 | 117769
13 | 26:10.20 | 2:02.05 | 117770 | 126924
14 | 28:12.25 | 1:00.65 | 126925 | 131489
15 | 29:13.15 | 10:05.35 | 131490 | 176899
16 | 39:18.50 | 1:08.57 | 176900 | 182056
17 | 40:27.32 | 1:29.68 | 182057 | 188799
Range status and errors
Selected range
Filename D:\EAC\Offenbach - Salon Pitzelberger, Hanell.wav
Peak level 100.0 %
Extraction speed 1.9 X
Range quality 100.0 %
Test CRC 712101A4
Copy CRC 712101A4
Copy OK
No errors occurred
AccurateRip summary
Track 1 accurately ripped (confidence 2) [141A5584] (AR v1)
Track 2 accurately ripped (confidence 2) [CDCCBB9E] (AR v1)
Track 3 accurately ripped (confidence 2) [3EB9E2B6] (AR v1)
Track 4 accurately ripped (confidence 2) [3DD87842] (AR v1)
Track 5 accurately ripped (confidence 2) [2EB3CDB6] (AR v1)
Track 6 accurately ripped (confidence 2) [7CE5016D] (AR v1)
Track 7 accurately ripped (confidence 2) [B55A188F] (AR v1)
Track 8 accurately ripped (confidence 2) [A3CB938E] (AR v1)
Track 9 accurately ripped (confidence 2) [812C9571] (AR v1)
Track 10 accurately ripped (confidence 2) [6ABC911A] (AR v1)
Track 11 accurately ripped (confidence 2) [81AC27B3] (AR v1)
Track 12 accurately ripped (confidence 2) [3867363E] (AR v1)
Track 13 accurately ripped (confidence 2) [53A73335] (AR v1)
Track 14 accurately ripped (confidence 2) [F6C235FF] (AR v1)
Track 15 accurately ripped (confidence 2) [B69F8F63] (AR v1)
Track 16 accurately ripped (confidence 2) [DD798163] (AR v1)
Track 17 accurately ripped (confidence 2) [8D416375] (AR v1)
All tracks accurately ripped
End of status report
---- CUETools DB Plugin V2.1.3
[CTDB TOCID: 2I07Tvd6NdYNJlxF1Rvrg_Lt0WQ-] disk not present in database, Submit result: 2I07Tvd6NdYNJlxF1Rvrg_Lt0WQ- has been uploaded
==== Log checksum 4837AFF2EDEBA45BC42B3C8DD351BDA650D47E60D694A8F4DC24D06C694AE52C ====

Содержание индексной карты (.CUE)

REM GENRE Opera
REM DATE 1970
REM DISCID DB09D511
REM COMMENT "ExactAudioCopy v1.0b3"
PERFORMER "Offenbach"
TITLE "Salon Pitzelberger, Hanell"
FILE "Offenbach - Salon Pitzelberger, Hanell.ape" WAVE
TRACK 01 AUDIO
TITLE "Vorspiel"
PERFORMER "Offenbach"
INDEX 01 00:00:00
TRACK 02 AUDIO
TITLE "Diesen Abend werd ich nie vergessen"
PERFORMER "Offenbach"
INDEX 01 02:23:57
TRACK 03 AUDIO
TITLE "Wie froh ich bin"
PERFORMER "Offenbach"
INDEX 01 02:45:10
TRACK 04 AUDIO
TITLE "Ich spreche von meinem Geliebten"
PERFORMER "Offenbach"
INDEX 01 04:54:52
TRACK 05 AUDIO
TITLE "Pedro mit dem schnellen Karren"
PERFORMER "Offenbach"
INDEX 01 07:31:22
TRACK 06 AUDIO
TITLE "Ich sollte den Mann nicht heiraten"
PERFORMER "Offenbach"
INDEX 01 10:14:45
TRACK 07 AUDIO
TITLE "Die weise gütige Natur"
PERFORMER "Offenbach"
INDEX 01 13:19:07
TRACK 08 AUDIO
TITLE "Nun mach schon"
PERFORMER "Offenbach"
INDEX 01 14:35:32
TRACK 09 AUDIO
TITLE "Papa, ich rette dich"
PERFORMER "Offenbach"
INDEX 00 16:48:25
INDEX 01 16:51:00
TRACK 10 AUDIO
TITLE "Casimir"
PERFORMER "Offenbach"
INDEX 01 17:04:27
TRACK 11 AUDIO
TITLE "Also bei aller Liebe"
PERFORMER "Offenbach"
INDEX 01 22:56:50
TRACK 12 AUDIO
TITLE "Monsieur das ist ja ein herrliches Getränk"
PERFORMER "Offenbach"
INDEX 01 24:58:57
TRACK 13 AUDIO
TITLE "Wir sind da eingeladen"
PERFORMER "Offenbach"
INDEX 01 26:10:20
TRACK 14 AUDIO
TITLE "Und während ich mit Casimir"
PERFORMER "Offenbach"
INDEX 01 28:12:25
TRACK 15 AUDIO
TITLE "Italia bella"
PERFORMER "Offenbach"
INDEX 01 29:13:15
TRACK 16 AUDIO
TITLE "Im Nebenzimmer legen wir schnell"
PERFORMER "Offenbach"
INDEX 01 39:18:50
TRACK 17 AUDIO
TITLE "Ja, der Gesang so schön und prächtig"
PERFORMER "Offenbach"
INDEX 01 40:27:32



Показать сообщения:    

Текущее время: 04-Дек 21:21

Часовой пояс: UTC + 3


Вы не можете начинать темы
Вы не можете отвечать на сообщения
Вы не можете редактировать свои сообщения
Вы не можете удалять свои сообщения
Вы не можете голосовать в опросах
Вы не можете прикреплять файлы к сообщениям
Вы не можете скачивать файлы