(Classical/Totalism) John Luther Adams - The Wind in High Places, Canticles of the Sky & Dream of the Canyon Wren (JACK Quartet & Northwestern University Cello Ensemble) - 2015, FLAC (image+.cue) lossless


 

[Цитировать]

John Luther Adams - The Wind in High Places
Жанр: Classical/Totalism
Страна-производитель диска: USA
Год издания диска: 2015
Издатель (лейбл): Cold Blue Music
Номер по каталогу: CB0041
Дата записи: 2013-2014
Аудиокодек: FLAC
Тип рипа: image+.cue
Битрейт аудио: lossless
Продолжительность: 43'58"
Источник: собственный рип
Наличие сканов в содержимом раздачи: да
Треклист:
The Wind in High Places*
1. I. Above Sunset Pass
2. II. Maclaren Summit
3. III. Looking Toward Hope
Canticles of the Sky**
4. Sky with Four Suns
5. Sky with Four Moons
6. Sky with Nameless Colors
7. Sky with Endless Stars
8. Dream of the Canyon Wren*
Исполнители:
JACK Quartet*
Northwestern University Cello Ensemble**
Hans Jorgen Jensen**-

Лог создания рипа

Exact Audio Copy V1.0 beta 4 from 7. December 2014
EAC extraction logfile from 17. April 2015, 23:18
John Luther Adams / The Wind in High Places
Used drive : TSSTcorpDVDWBD TS-LB23A Adapter: 1 ID: 0
Read mode : Secure
Utilize accurate stream : Yes
Defeat audio cache : Yes
Make use of C2 pointers : No
Read offset correction : 6
Overread into Lead-In and Lead-Out : No
Fill up missing offset samples with silence : Yes
Delete leading and trailing silent blocks : No
Null samples used in CRC calculations : Yes
Used interface : Native Win32 interface for Win NT & 2000
Used output format : User Defined Encoder
Selected bitrate : 128 kBit/s
Quality : High
Add ID3 tag : Yes
Command line compressor : C:\Program Files (x86)\Exact Audio Copy\Flac\flac.exe
Additional command line options : -T "COMMENT=Ripped by GFox" -V -8 %source%
TOC of the extracted CD
Track | Start | Length | Start sector | End sector
---------------------------------------------------------
1 | 0:00.00 | 7:25.10 | 0 | 33384
2 | 7:25.10 | 4:55.48 | 33385 | 55557
3 | 12:20.58 | 6:11.05 | 55558 | 83387
4 | 18:31.63 | 4:24.35 | 83388 | 103222
5 | 22:56.23 | 4:23.58 | 103223 | 123005
6 | 27:20.06 | 4:26.03 | 123006 | 142958
7 | 31:46.09 | 4:31.38 | 142959 | 163321
8 | 36:17.47 | 7:40.64 | 163322 | 197885
Range status and errors
Selected range
Filename D:\Downloads\John Luther Adams - The Wind in High Places.wav
Peak level 100.0 %
Extraction speed 1.5 X
Range quality 100.0 %
Test CRC 1436CD8F
Copy CRC 1436CD8F
Copy OK
No errors occurred
AccurateRip summary
Track 1 not present in database
Track 2 not present in database
Track 3 not present in database
Track 4 not present in database
Track 5 not present in database
Track 6 not present in database
Track 7 not present in database
Track 8 not present in database
None of the tracks are present in the AccurateRip database
End of status report
==== Log checksum 9DA3A83BCAAE81A02A8522AADC1F32D8ED47F4222F83C9B4E8310394A8F938CB ====
-Доп. информация: Тотализм - направление в музыке, сформировавшееся в результате продолжения и развития идей минимализма композиторами поколения 50-х годов прошлого века. По своим истокам тотализм близок постминимализму. Сам термин отражает попытку совместить внешнюю ритмичность минимализма с внутренней сложностью додекафонной музыки. Фактически тоталистская музыка может быть, как тональной или атональной, так и той, и другой одновременно, но обязательно ограничена небольшим числом аккордов в пределах одной отдельно взятой пьесы. Наиболее известные композиторы-тоталисты: Кайл Ганн, Гленн Бранка, Джон Лютер Адамс (не путать с автором Никсона в Китае постминималистом Джоном Адамсом) и участник коллектива Bang on a Can Эван Зипорин.-



Показать сообщения:    

Текущее время: 07-Дек 13:38

Часовой пояс: UTC + 3


Вы не можете начинать темы
Вы не можете отвечать на сообщения
Вы не можете редактировать свои сообщения
Вы не можете удалять свои сообщения
Вы не можете голосовать в опросах
Вы не можете прикреплять файлы к сообщениям
Вы не можете скачивать файлы