Искательницы приключений: Амелия Эрхард, Гертруда Белл, Александра Давид-Неэль, Анна Леоноуэнс, Маргарет Харрисон (5 серий) / Women Adventurers (Джейн Армстронг / Jane Armstrong) [2000-2001, биографический, DVBRip] DVO (Первый канал)


Статистика раздачи [Обновить пиров]
Размер:  3.43 GB   |    Зарегистрирован:  8 месяцев 20 дней   |    Скачан:  0 раз

Полного источника не было: Никогда

 
   
 
 
 

[Цитировать]

Искательницы приключений / Women Adventurers Дата/Год выпуска: 2000-2001
Страна: Канада
Жанр: документально-игровой, биографический
Продолжительность: 04:20:27 (по ~00:52:00)
Перевод: Профессиональный (двухголосый закадровый) - по заказу ЗАО "Первый канал. Всемирная сеть"
Русские субтитры: нет
Режиссер: Джейн Армстронг / Jane Armstrong
Описание: Несмотря на то, что великими первооткрывателями являются мужчины, женщинам тоже свойственен авантюрный дух приключений.
Английская учительница Анны Леоноуэнс в 1860 году уехала вместе с сыном за тысячи миль в Сиам, и ее история легла в основу легендарного фильма "Анна и Король". Авиатор Амелия Эрхарт в 1937 году – стала первой женщиной-пилотом, пересекшей Атлантический океан. Писательница, археолог и шпионка Гертруда Белл в начале XX века совершила многочисленные путешествия по Великой Сирии, Месопотамии, Малой Азии и Аравии и наряду с Лоуренсом Аравийским помогла утвердиться Хашимитской династии на территории современной Иордании, а также в Ираке.
Доп. информация: "Время: далекое и близкое". 5-серийный цикл. Показ эпизодов идет не по порядку.
Рип сделан из этого DVB.
Сэмпл: 01_Anna Leonowens - Anna and the King of Siam (2001)_DVBRip_Sample_.avi
качество: DVBRip
формат: AVI
Видео: 688x400 (1.72:1), 25 fps, XviD build 50 ~1686 kbps avg, 0.25 bit/pixel
Аудио: 48 kHz, AC3 Dolby Digital, 2/0 (L,R) ch, ~192 kbps

Список выпусков/серийЭпизод 1: Анна Леоноуэнс - Анна и король Сиама / Anna Leonowens: Anna and the King of Siam (2001)

Продолжительность: 00:51:59
Режиссер: Джейн Армстронг / Jane Armstrong
Описание: В 1862 году Анна Леоноуэнс по приглашению короля Сиама Монгкута приехала в Бангкок, чтобы учить королевских детей. Учительница английского языка Анна Леоноуэнс — женщина совершенно необычная для своего викторианского времени. Молодая вдова вместе со своим маленьким сыном отправляется за тысячи миль в Сиам — страну, практически неизвестную тогда на Западе. При этом единственное, чем она располагает, это огромный энтузиазм и... учебник тайского языка. Обратного пути из этого удивительного путешествия не будет. Анна принята на работу при королевском дворе — она будет обучать пятьдесят восемь детей короля. О короле Монгкуте ей известно очень мало — только то, что сиамцы почитают его, как божество.

Скриншоты

Эпизод 2: Маргарет Харрисон — шпионка в Москве / Marguerite Harrison: A Spy in Moscow (2000)

Продолжительность: 00:51:43
Режиссер: Джейн Армстронг / Jane Armstrong
Описание: То, что начиналось как поиск приключений, заканчивается смертным приговором... В начале 1920 года секретный агент США под видом репортера едет в СССР с тайной миссией — добыть сведения о коммунистическом режиме. Но Маргарет ждет подготовленная противником ловушка.

Скриншоты

Эпизод 3: Амелия Эрхард – полет ангела / Amelia Earhart: Fallen Angel (2000)

Продолжительность: 00:51:57
Режиссер: Гари Лэнг / Gary Lang
Описание: В 1937 году знаменитая женщина-авиатор Амелия Эрхарт исчезла в бесконечных просторах Тихого океана... Это должен был быть самый длинный, первый в истории человечества кругосветный перелет, совершенный на легком двухмоторном самолете. А Амелия была опытным пилотом — именно она первой среди женщин-авиаторов в одиночку пролетела над Антлантикой. Перелет, кроме того, должен был многое доказать мужчинам всего мира, а именно, что женщины способны покорять небо не хуже пилотов сильного пола. За равноправие в профессии Амелия боролась всю свою профессиональную жизнь: она написала несколько книг-бестселлеров о своих полетах, была идейным вдохновителем организации "Девяносто девять" — сообщества женщин-пилотов, и даже была выбрана его первым президентом. Никто не готовился к полету так тщательно, как это делала Амелия. Тем более, к полету, за которым следил весь мир! И вот 2 июля 1937 связь с самолетом Амелии пропала...

Скриншоты

Эпизод 4: Гертруда Белл - путешественница в пустыне / Gertrude Bell: Desert Explorer (2000)

Продолжительность: 00:51:58
Режиссер: Кристофер Роули / Christopher Rowley
Описание: Фильм об одной из наиболее известных исследовательниц стран Ближнего Востока в XX веке — англичанке Гертруде Белл (1868-1926), заслужившей прозвище "Лоуренс Аравийский в юбке". Отличаясь особым интересом к иностранным языкам и археологии, она подробно описала свои странствия по Османской империи. Это было весьма смело с ее стороны, поскольку османы всегда были приверженцами патриархата в одной из самых жестких его форм, а с другой стороны — англичане для них были как минимум чужаками, а как максимум — смертельными врагами. Во время Первой мировой войны Белл трудилась на британскую разведку, и во многом благодаря ее деятельности Англия сумела отхватить себе порядочную часть Османской империи — Ирак и Палестину.

Скриншоты

Эпизод 5: Запретный путь – история путешествия Александры Давид-Неэль в Лхасу / Forbidden Land: The Story of Alexandra David-Neel's Journey to Lhasa (2000)

Продолжительность: 00:51:58
Режиссер: Кристофер Роули / Christopher Rowley
Описание: В начале ХХ века Тибет оставался самым загадочным, труднодоступным, овеянным легендами и полностью запретным для иностранцев краем... В 1923 году француженка Александра Давид-Неэль в возрасте 50 лет отправилась в путь, который мог стоить ей жизни. Она стала первой европейской женщиной, которая достигла столицы Тибета Лхасы. Луиза Евгения Александрина Мария Давид родилась во Франции, в предместье Парижа. С детства была бунтаркой. Выйдя замуж, размеренность обывательского существования она променяла на богемный образ жизни. Но и это ей быстро наскучило. В 1911 году Александра отправилась в Индию, планируя провести там год, но вернулась во Францию только через 14 лет.

Скриншоты

MediaInfo

General
Complete name : C:\Temp\Women Adventurers\01_Anna Leonowens - Anna and the King of Siam (2001)_DVBRip_.avi
Format : AVI
Format/Info : Audio Video Interleave
File size : 702 MiB
Duration : 51mn 59s
Overall bit rate : 1 888 Kbps
Writing application : VirtualDubMod 1.5.10.3 | www.virtualdub-fr.org || (build 2550/release)
Writing library : VirtualDubMod build 2550/release
Video
ID : 0
Format : MPEG-4 Visual
Format profile : Advanced Simple@L5
Format settings, BVOP : 2
Format settings, QPel : No
Format settings, GMC : No warppoints
Format settings, Matrix : Default (H.263)
Codec ID : XVID
Codec ID/Hint : XviD
Duration : 51mn 59s
Bit rate : 1 687 Kbps
Width : 688 pixels
Height : 400 pixels
Display aspect ratio : 1.720
Frame rate : 25.000 fps
Color space : YUV
Chroma subsampling : 4:2:0
Bit depth : 8 bits
Scan type : Progressive
Compression mode : Lossy
Bits/(Pixel*Frame) : 0.245
Stream size : 627 MiB (89%)
Writing library : XviD 1.2.1 (UTC 2008-12-04)
Audio
ID : 1
Format : AC-3
Format/Info : Audio Coding 3
Mode extension : CM (complete main)
Format settings, Endianness : Big
Codec ID : 2000
Duration : 51mn 59s
Bit rate mode : Constant
Bit rate : 192 Kbps
Channel(s) : 2 channels
Channel positions : Front: L R
Sampling rate : 48.0 KHz
Bit depth : 16 bits
Compression mode : Lossy
Stream size : 71.4 MiB (10%)
Alignment : Split accross interleaves
Interleave, duration : 40 ms (1.00 video frame)
Interleave, preload duratio : 500 ms--General
Complete name : C:\Temp\_RELEASES_\Women Adventurers\02_Marguerite Harrison - A Spy in Moscow (2000)_DVBRip_.avi
Format : AVI
Format/Info : Audio Video Interleave
File size : 702 MiB
Duration : 51mn 43s
Overall bit rate : 1 898 Kbps
Writing application : VirtualDubMod 1.5.10.3 | www.virtualdub-fr.org || (build 2550/release)
Writing library : VirtualDubMod build 2550/release
Video
ID : 0
Format : MPEG-4 Visual
Format profile : Advanced Simple@L5
Format settings, BVOP : 2
Format settings, QPel : No
Format settings, GMC : No warppoints
Format settings, Matrix : Default (H.263)
Codec ID : XVID
Codec ID/Hint : XviD
Duration : 51mn 43s
Bit rate : 1 696 Kbps
Width : 688 pixels
Height : 400 pixels
Display aspect ratio : 1.720
Frame rate : 25.000 fps
Color space : YUV
Chroma subsampling : 4:2:0
Bit depth : 8 bits
Scan type : Progressive
Compression mode : Lossy
Bits/(Pixel*Frame) : 0.247
Stream size : 628 MiB (89%)
Writing library : XviD 1.2.1 (UTC 2008-12-04)
Audio
ID : 1
Format : AC-3
Format/Info : Audio Coding 3
Mode extension : CM (complete main)
Format settings, Endianness : Big
Codec ID : 2000
Duration : 51mn 43s
Bit rate mode : Constant
Bit rate : 192 Kbps
Channel(s) : 2 channels
Channel positions : Front: L R
Sampling rate : 48.0 KHz
Bit depth : 16 bits
Compression mode : Lossy
Stream size : 71.0 MiB (10%)
Alignment : Split accross interleaves
Interleave, duration : 40 ms (1.00 video frame)
Interleave, preload duratio : 500 ms--General
Complete name : C:\Temp\_RELEASES_\Women Adventurers\03_Amelia Earhart - Fallen Angel (2000)_DVBRip_.avi
Format : AVI
Format/Info : Audio Video Interleave
File size : 702 MiB
Duration : 51mn 57s
Overall bit rate : 1 889 Kbps
Writing application : VirtualDubMod 1.5.10.3 | www.virtualdub-fr.org || (build 2550/release)
Writing library : VirtualDubMod build 2550/release
Video
ID : 0
Format : MPEG-4 Visual
Format profile : Advanced Simple@L5
Format settings, BVOP : 2
Format settings, QPel : No
Format settings, GMC : No warppoints
Format settings, Matrix : Default (H.263)
Codec ID : XVID
Codec ID/Hint : XviD
Duration : 51mn 57s
Bit rate : 1 687 Kbps
Width : 688 pixels
Height : 400 pixels
Display aspect ratio : 1.720
Frame rate : 25.000 fps
Color space : YUV
Chroma subsampling : 4:2:0
Bit depth : 8 bits
Scan type : Progressive
Compression mode : Lossy
Bits/(Pixel*Frame) : 0.245
Stream size : 627 MiB (89%)
Writing library : XviD 1.2.1 (UTC 2008-12-04)
Audio
ID : 1
Format : AC-3
Format/Info : Audio Coding 3
Mode extension : CM (complete main)
Format settings, Endianness : Big
Codec ID : 2000
Duration : 51mn 57s
Bit rate mode : Constant
Bit rate : 192 Kbps
Channel(s) : 2 channels
Channel positions : Front: L R
Sampling rate : 48.0 KHz
Bit depth : 16 bits
Compression mode : Lossy
Stream size : 71.4 MiB (10%)
Alignment : Split accross interleaves
Interleave, duration : 40 ms (1.00 video frame)
Interleave, preload duratio : 500 ms--General
Complete name : C:\Temp\_RELEASES_\Women Adventurers\04_Gertrude Bell - Desert Explorer (2000)_DVBRip_.avi
Format : AVI
Format/Info : Audio Video Interleave
File size : 702 MiB
Duration : 51mn 58s
Overall bit rate : 1 889 Kbps
Writing application : VirtualDubMod 1.5.10.3 | www.virtualdub-fr.org || (build 2550/release)
Writing library : VirtualDubMod build 2550/release
Video
ID : 0
Format : MPEG-4 Visual
Format profile : Advanced Simple@L5
Format settings, BVOP : 2
Format settings, QPel : No
Format settings, GMC : No warppoints
Format settings, Matrix : Default (H.263)
Codec ID : XVID
Codec ID/Hint : XviD
Duration : 51mn 58s
Bit rate : 1 687 Kbps
Width : 688 pixels
Height : 400 pixels
Display aspect ratio : 1.720
Frame rate : 25.000 fps
Color space : YUV
Chroma subsampling : 4:2:0
Bit depth : 8 bits
Scan type : Progressive
Compression mode : Lossy
Bits/(Pixel*Frame) : 0.245
Stream size : 627 MiB (89%)
Writing library : XviD 1.2.1 (UTC 2008-12-04)
Audio
ID : 1
Format : AC-3
Format/Info : Audio Coding 3
Mode extension : CM (complete main)
Format settings, Endianness : Big
Codec ID : 2000
Duration : 51mn 58s
Bit rate mode : Constant
Bit rate : 192 Kbps
Channel(s) : 2 channels
Channel positions : Front: L R
Sampling rate : 48.0 KHz
Bit depth : 16 bits
Compression mode : Lossy
Stream size : 71.4 MiB (10%)
Alignment : Split accross interleaves
Interleave, duration : 40 ms (1.00 video frame)
Interleave, preload duratio : 500 ms--General
Complete name : C:\Temp\_RELEASES_\Women Adventurers\05_Forbidden Land - The Story of Alexandra David-Neel's Journey to Lhasa (2000)_DVBRip_.avi
Format : AVI
Format/Info : Audio Video Interleave
File size : 702 MiB
Duration : 51mn 58s
Overall bit rate : 1 888 Kbps
Writing application : VirtualDubMod 1.5.10.3 | www.virtualdub-fr.org || (build 2550/release)
Writing library : VirtualDubMod build 2550/release
Video
ID : 0
Format : MPEG-4 Visual
Format profile : Advanced Simple@L5
Format settings, BVOP : 2
Format settings, QPel : No
Format settings, GMC : No warppoints
Format settings, Matrix : Default (H.263)
Codec ID : XVID
Codec ID/Hint : XviD
Duration : 51mn 58s
Bit rate : 1 686 Kbps
Width : 688 pixels
Height : 400 pixels
Display aspect ratio : 1.720
Frame rate : 25.000 fps
Color space : YUV
Chroma subsampling : 4:2:0
Bit depth : 8 bits
Scan type : Progressive
Compression mode : Lossy
Bits/(Pixel*Frame) : 0.245
Stream size : 627 MiB (89%)
Writing library : XviD 1.2.1 (UTC 2008-12-04)
Audio
ID : 1
Format : AC-3
Format/Info : Audio Coding 3
Mode extension : CM (complete main)
Format settings, Endianness : Big
Codec ID : 2000
Duration : 51mn 58s
Bit rate mode : Constant
Bit rate : 192 Kbps
Channel(s) : 2 channels
Channel positions : Front: L R
Sampling rate : 48.0 KHz
Bit depth : 16 bits
Compression mode : Lossy
Stream size : 71.4 MiB (10%)
Alignment : Split accross interleaves
Interleave, duration : 40 ms (1.00 video frame)
Interleave, preload duratio : 500 ms
[teatrix.ru].t20963.torrent 
Торрент: Зарегистрирован [ 2016-03-20 00:57 ] · 5CC9FAC1034E9763F592C941AE27C3CF27EEC793

Скачать .torrent

Скачать

18 KB

Статус: проверено
Скачан: 0 раз
Размер: 3.43 GB
terms.php



Быстрый ответ

Имя:

      
Для отправки сообщений необходимо включить JavaScript
Показать сообщения:    

Текущее время: 09-Дек 01:05

Часовой пояс: UTC + 3


Вы можете начинать темы
Вы можете отвечать на сообщения
Вы не можете редактировать свои сообщения
Вы не можете удалять свои сообщения
Вы не можете голосовать в опросах
Вы не можете прикреплять файлы к сообщениям
Вы можете скачивать файлы