Вячеслав Тихонов. Иволга (Пётр Шепотинник) [2003-2014, Документальнй, биография, DVB-Т2]


Статистика раздачи [Обновить пиров]
Размер:  777 MB   |    Зарегистрирован:  8 месяцев 18 дней   |    Скачан:  0 раз

Полного источника не было: Никогда

 
   
 
 
 

[Цитировать]

Вячеслав Тихонов. Иволга
Дата/Год выпуска: 2003-2014
Страна: Россия
Жанр: Документальнй, биография
Продолжительность: 00:36:07
Перевод: Не требуется
Русские субтитры: нет
Режиссер: Пётр Шепотинник
Телеканал: Культура
Описание: Он просыпался знаменитым несколько раз, страна полюбила его сразу, приняла за своего после фильмов Станислава Ростоцкого, Сергея Бондарчука, а после выхода сериала "17 мгновений весны" его слава достигла таких вершин, которые превзошли все мыслимые ожидания. Все, что делал удивительный актер Вячеслав Тихонов, так глубоко вошло в наш общий личный опыт, что существует там постоянно, на каких-то особых, домашних правах.
Сэмпл
качество: DVB-Т2
формат: TS
Видео: MPEG4 (H264) 720x576 (4:3), 2662 kbps, 25.00fps 0.249 bit/pixel
Аудио: MP-2, 2 ch, 48,0 КГц, 192 kbps

MediaInfo

D:\видео\Вячеслав Тихонов. Иволга.ts
General #1
ID : 1 (0x1)
Complete name : D:\видео\Вячеслав Тихонов. Иволга.ts
Format : MPEG-TS
File size : 777 MiB
Duration : 36mn 7s
Overall bit rate : 3 005 Kbps
Video #1061
ID : 1061 (0x425)
Menu ID : 1 (0x1)
Format : AVC
Format/Info : Advanced Video Codec
Format profile : Main@L3.0
Format settings, CABAC : Yes
Format settings, ReFrames : 3 frames
Format settings, GOP : M=4, N=28
Codec ID : 27
Duration : 36mn 7s
Bit rate : 2 662 Kbps
Width : 720 pixels
Height : 576 pixels
Display aspect ratio : 4:3
Frame rate : 25.000 fps
Standard : Component
Color space : YUV
Chroma subsampling : 4:2:0
Bit depth : 8 bits
Scan type : Interlaced
Scan order : Top Field First
Bits/(Pixel*Frame) : 0.257
Stream size : 688 MiB (89%)
Color primaries : BT.470-6 System B, BT.470-6 System G, BT.601-6 625, BT.1358 625, BT.1700 625 PAL, BT.1700 625 SECAM
Transfer characteristics : BT.470-6 System B, BT.470-6 System G
Matrix coefficients : BT.470-6 System B, BT.470-6 System G, BT.601-6 625, BT.1358 625, BT.1700 625 PAL, BT.1700 625 SECAM, IEC 61966-2-4 601
Audio #1062
ID : 1062 (0x426)
Menu ID : 1 (0x1)
Format : MPEG Audio
Format version : Version 1
Format profile : Layer 2
Codec ID : 3
Duration : 36mn 7s
Bit rate mode : Constant
Bit rate : 192 Kbps
Channel(s) : 2 channels
Sampling rate : 48.0 KHz4
Compression mode : Lossy
Stream size : 49.6 MiB (6%)
Language : English
Text #1064-100
ID : 1064 (0x428)-100
Menu ID : 1 (0x1)
Format : Teletext Subtitle
Language : Russian

Скриншоты

[teatrix.ru].t20966.torrent 
Торрент: Зарегистрирован [ 2016-03-20 00:57 ] · 7BDEBBD23D1C168638CB7E4B0150893CABB5FE12

Скачать .torrent

Скачать

16 KB

Статус: проверено
Скачан: 0 раз
Размер: 777 MB
terms.php



Быстрый ответ

Имя:

      
Для отправки сообщений необходимо включить JavaScript
Показать сообщения:    

Текущее время: 07-Дек 15:32

Часовой пояс: UTC + 3


Вы можете начинать темы
Вы можете отвечать на сообщения
Вы не можете редактировать свои сообщения
Вы не можете удалять свои сообщения
Вы не можете голосовать в опросах
Вы не можете прикреплять файлы к сообщениям
Вы можете скачивать файлы