(Vocal, orchestral) Scherchen - Archives Westminster Vol.6: Mahler - Kindertotenlieder, Lieder eines fahrenden Gesellen | Liszt - Hungarian Rhapsodies | Sаint-Saens - Le carnaval des Animaux - 2009, FLAC (image+.cue) lossless


 

[Цитировать]

Les Grands Interprètes
HERMANN SCHERCHEN
Mahler, Liszt, Saint-Saёns
--- Жанр: Vocal, orchestral
Страна-производитель диска: France
Год издания диска: 2009
Издатель (лейбл): TAHRA
Дата записи: 1954-58
Аудиокодек: FLAC
Тип рипа: image+.cue
Битрейт аудио: lossless
Продолжительность: 66'45'' | 71'27''
Источник: собственный рип
Наличие сканов в содержимом раздачи: да
Треклист:

CD1

[01] G.Mahler - Kindertotenlieder: Nun will ich die Sonn'
[02] Nun seh' ich wohl
[03] Wenn dein Mütterlein
[04] Oft denk' ich, sie sind nur ausgegangen
[05] In diesem Wetter
[06] G.Mahler - Lieder eines fahrenden Gesellen: Wenn mein Schatz
[07] Ging heut' morgens übers Feld
[08] Ich hab' ein glühend Messer
[09] Die zwei blauen Augen
[10] F.Liszt - Hungarian rhapsodies: No.1 f-moll
[11] No.2 d-moll

Лог создания рипа

Exact Audio Copy V1.0 beta 4 from 7. December 2014
EAC extraction logfile from 3. February 2015, 21:30
Wiener Staatsopernorchester - H.Scherchen / Scherchen - Archives Westminster - Vol.VI (CD1)
Used drive : HL-DT-STDVD+-RW GU90N Adapter: 1 ID: 0
Read mode : Secure
Utilize accurate stream : Yes
Defeat audio cache : Yes
Make use of C2 pointers : No
Read offset correction : 102
Overread into Lead-In and Lead-Out : No
Fill up missing offset samples with silence : Yes
Delete leading and trailing silent blocks : No
Null samples used in CRC calculations : Yes
Used interface : Native Win32 interface for Win NT & 2000
Used output format : User Defined Encoder
Selected bitrate : 1024 kBit/s
Quality : High
Add ID3 tag : No
Command line compressor : C:\Program Files (x86)\FLAC\flac.exe
Additional command line options : -T "COMMENT=rip by el coronel" -8 -V %source%
TOC of the extracted CD
Track | Start | Length | Start sector | End sector
---------------------------------------------------------
1 | 0:00.00 | 6:10.72 | 0 | 27821
2 | 6:10.72 | 5:32.55 | 27822 | 52776
3 | 11:43.52 | 5:31.08 | 52777 | 77609
4 | 17:14.60 | 4:13.53 | 77610 | 96637
5 | 21:28.38 | 7:57.54 | 96638 | 132466
6 | 29:26.17 | 4:12.07 | 132467 | 151373
7 | 33:38.24 | 4:27.29 | 151374 | 171427
8 | 38:05.53 | 2:34.28 | 171428 | 183005
9 | 40:40.06 | 5:23.52 | 183006 | 207282
10 | 46:03.58 | 10:35.73 | 207283 | 254980
11 | 56:39.56 | 10:05.29 | 254981 | 300384
Range status and errors
Selected range
Filename F:\Music\Scherchen - Archives Westminster VI\CD1.wav
Peak level 94.4 %
Extraction speed 4.3 X
Range quality 100.0 %
Test CRC C381DE7C
Copy CRC C381DE7C
Copy OK
No errors occurred
AccurateRip summary
Track 1 accurately ripped (confidence 1) [1C5ABB97] (AR v2)
Track 2 accurately ripped (confidence 1) [23604957] (AR v2)
Track 3 accurately ripped (confidence 1) [E04DDE04] (AR v2)
Track 4 accurately ripped (confidence 1) [93430751] (AR v2)
Track 5 accurately ripped (confidence 1) [03A0291E] (AR v2)
Track 6 accurately ripped (confidence 1) [5B04769B] (AR v2)
Track 7 accurately ripped (confidence 1) [ABD25D89] (AR v2)
Track 8 accurately ripped (confidence 1) [31280EE8] (AR v2)
Track 9 accurately ripped (confidence 1) [28C5AE51] (AR v2)
Track 10 accurately ripped (confidence 1) [DC6B81C0] (AR v2)
Track 11 accurately ripped (confidence 1) [56EBA9F7] (AR v2)
All tracks accurately ripped
End of status report
---- CUETools DB Plugin V2.1.4
[CTDB TOCID: JutZeb0N9ELEjfdSG1OcKF4bAEA-] disk not present in database
Submit result: JutZeb0N9ELEjfdSG1OcKF4bAEA- has been uploaded
==== Log checksum 034958A1999205DE7DD30D10FA4AFD7CF43D089350CEBF7801139641C346027B ====

Содержание индексной карты (.CUE)

REM GENRE Classical
REM DATE 2009
REM DISCID 850FA50B
REM COMMENT "ExactAudioCopy v1.0b4"
PERFORMER "Wiener Staatsopernorchester - H.Scherchen"
TITLE "Scherchen - Archives Westminster - Vol.VI (CD1)"
FILE "CD1.flac" WAVE
TRACK 01 AUDIO
TITLE "G.Mahler - Kindertotenlieder: Nun will ich die Sonn'"
PERFORMER "L. West; Wiener Staatsopernorchester - Hermann Scherchen"
INDEX 01 00:00:00
TRACK 02 AUDIO
TITLE "Nun seh' ich wohl"
PERFORMER "L. West; Wiener Staatsopernorchester - Hermann Scherchen"
INDEX 00 06:05:46
INDEX 01 06:10:72
TRACK 03 AUDIO
TITLE "Wenn dein Mutterlein"
PERFORMER "L. West; Wiener Staatsopernorchester - Hermann Scherchen"
INDEX 00 11:37:13
INDEX 01 11:43:52
TRACK 04 AUDIO
TITLE "Oft denk' ich, sie sind nur ausgegangen"
PERFORMER "L. West; Wiener Staatsopernorchester - Hermann Scherchen"
INDEX 00 17:08:07
INDEX 01 17:14:60
TRACK 05 AUDIO
TITLE "In diesem Wetter"
PERFORMER "L. West; Wiener Staatsopernorchester - Hermann Scherchen"
INDEX 00 21:22:09
INDEX 01 21:28:38
TRACK 06 AUDIO
TITLE "G.Mahler - Lieder eines fahrenden Gesellen: Wenn mein Schatz"
PERFORMER "L. West; Wiener Staatsopernorchester - Hermann Scherchen"
INDEX 00 29:23:17
INDEX 01 29:26:17
TRACK 07 AUDIO
TITLE "Ging heut' morgens ubers Feld"
PERFORMER "L. West; Wiener Staatsopernorchester - Hermann Scherchen"
INDEX 00 33:33:36
INDEX 01 33:38:24
TRACK 08 AUDIO
TITLE "Ich hab' ein gluhend Messer"
PERFORMER "L. West; Wiener Staatsopernorchester - Hermann Scherchen"
INDEX 00 38:00:43
INDEX 01 38:05:53
TRACK 09 AUDIO
TITLE "Die zwei blauen Augen"
PERFORMER "L. West; Wiener Staatsopernorchester - Hermann Scherchen"
INDEX 00 40:35:44
INDEX 01 40:40:06
TRACK 10 AUDIO
TITLE "F.Liszt - Hungarian rhapsodies: No.1 f-moll"
PERFORMER "Royal Philharmonic Orchestra - H.Scherchen"
INDEX 00 45:55:58
INDEX 01 46:03:58
TRACK 11 AUDIO
TITLE "No.2 d-moll"
PERFORMER "Royal Philharmonic Orchestra - H.Scherchen"
INDEX 00 56:35:56
INDEX 01 56:39:56

CD2

[01] F.Liszt - Hungarian rhapsodies: No.3 D-Dur
[02] No.4 d-moll
[03] No.5 e-moll
[04] No.6 D-Dur
[05] C.Saint-Saёns - Le Carnaval des Animaux: Introduction
[06] Marche royale du lion
[07] Poules et coqs
[08] Hémiones
[09] Tortues
[10] L'éléphant
[11] Kangourous
[12] Aquarium
[13] Animaux à longues oreilles
[14] Le coucou
[15] Volière
[16] Pianistes
[17] Fossiles
[18] Le cygne
[19] Finale

Лог создания рипа

Exact Audio Copy V1.0 beta 4 from 7. December 2014
EAC extraction logfile from 3. February 2015, 22:13
Wiener Staatsopernorchester - H.Scherchen / Scherchen - Archives Westminster - Vol.VI (CD2)
Used drive : HL-DT-STDVD+-RW GU90N Adapter: 1 ID: 0
Read mode : Secure
Utilize accurate stream : Yes
Defeat audio cache : Yes
Make use of C2 pointers : No
Read offset correction : 102
Overread into Lead-In and Lead-Out : No
Fill up missing offset samples with silence : Yes
Delete leading and trailing silent blocks : No
Null samples used in CRC calculations : Yes
Used interface : Native Win32 interface for Win NT & 2000
Used output format : User Defined Encoder
Selected bitrate : 1024 kBit/s
Quality : High
Add ID3 tag : No
Command line compressor : C:\Program Files (x86)\FLAC\flac.exe
Additional command line options : -T "COMMENT=rip by el coronel" -8 -V %source%
TOC of the extracted CD
Track | Start | Length | Start sector | End sector
---------------------------------------------------------
1 | 0:00.00 | 11:42.74 | 0 | 52723
2 | 11:42.74 | 8:44.25 | 52724 | 92048
3 | 20:27.24 | 10:37.62 | 92049 | 139885
4 | 31:05.11 | 12:44.24 | 139886 | 197209
5 | 43:49.35 | 0:57.18 | 197210 | 201502
6 | 44:46.53 | 1:31.16 | 201503 | 208343
7 | 46:17.69 | 1:15.57 | 208344 | 214025
8 | 47:33.51 | 1:04.50 | 214026 | 218875
9 | 48:38.26 | 2:00.26 | 218876 | 227901
10 | 50:38.52 | 2:18.55 | 227902 | 238306
11 | 52:57.32 | 1:27.68 | 238307 | 244899
12 | 54:25.25 | 2:49.54 | 244900 | 257628
13 | 57:15.04 | 0:56.27 | 257629 | 261855
14 | 58:11.31 | 2:34.31 | 261856 | 273436
15 | 60:45.62 | 1:55.72 | 273437 | 282133
16 | 62:41.59 | 2:12.27 | 282134 | 292060
17 | 64:54.11 | 1:40.74 | 292061 | 299634
18 | 66:35.10 | 2:52.21 | 299635 | 312555
19 | 69:27.31 | 2:00.06 | 312556 | 321561
Range status and errors
Selected range
Filename F:\Music\Scherchen - Archives Westminster VI\CD2.wav
Peak level 94.4 %
Extraction speed 4.6 X
Range quality 100.0 %
Test CRC F085ADFC
Copy CRC F085ADFC
Copy OK
No errors occurred
AccurateRip summary
Track 1 accurately ripped (confidence 1) [65DFD965] (AR v2)
Track 2 accurately ripped (confidence 1) [661592FE] (AR v2)
Track 3 accurately ripped (confidence 1) [64F02A86] (AR v2)
Track 4 accurately ripped (confidence 1) [0C7FB7B6] (AR v2)
Track 5 accurately ripped (confidence 1) [2B87E4CE] (AR v2)
Track 6 accurately ripped (confidence 1) [0F248698] (AR v2)
Track 7 accurately ripped (confidence 1) [958C12B1] (AR v2)
Track 8 accurately ripped (confidence 1) [48552393] (AR v2)
Track 9 accurately ripped (confidence 1) [F3707FA9] (AR v2)
Track 10 accurately ripped (confidence 1) [A3C72211] (AR v2)
Track 11 accurately ripped (confidence 1) [F1680DCB] (AR v2)
Track 12 accurately ripped (confidence 1) [FD1895FB] (AR v2)
Track 13 accurately ripped (confidence 1) [EA4DECEA] (AR v2)
Track 14 accurately ripped (confidence 1) [F4E464A9] (AR v2)
Track 15 accurately ripped (confidence 1) [FECB38BD] (AR v2)
Track 16 accurately ripped (confidence 1) [B266942E] (AR v2)
Track 17 accurately ripped (confidence 1) [39ED781D] (AR v2)
Track 18 accurately ripped (confidence 1) [5F2AF7A8] (AR v2)
Track 19 accurately ripped (confidence 1) [7EC671ED] (AR v2)
All tracks accurately ripped
End of status report
---- CUETools DB Plugin V2.1.4
[CTDB TOCID: QtLmO3X5YRxJ9F7pav3sRUwi7oA-] disk not present in database
Submit result: QtLmO3X5YRxJ9F7pav3sRUwi7oA- has been uploaded
==== Log checksum C2FD8C80DFAE97C388342622DDD092A6FE2ACD255B3D251F58DD895B4BF9274A ====

Содержание индексной карты (.CUE)

REM GENRE Classical
REM DATE 2009
REM DISCID 5210BF13
REM COMMENT "ExactAudioCopy v1.0b4"
PERFORMER "Wiener Staatsopernorchester - H.Scherchen"
TITLE "Scherchen - Archives Westminster - Vol.VI (CD2)"
FILE "CD2.flac" WAVE
TRACK 01 AUDIO
TITLE "F.Liszt - Hungarian rhapsodies: No.3 D-Dur"
PERFORMER "Royal Philharmonic Orchestra - H.Scherchen"
INDEX 01 00:00:00
TRACK 02 AUDIO
TITLE "No.4 d-moll"
PERFORMER "Royal Philharmonic Orchestra - H.Scherchen"
INDEX 00 11:38:74
INDEX 01 11:42:74
TRACK 03 AUDIO
TITLE "No.5 e-moll"
PERFORMER "Royal Philharmonic Orchestra - H.Scherchen"
INDEX 00 20:23:24
INDEX 01 20:27:24
TRACK 04 AUDIO
TITLE "No.6 D-Dur"
PERFORMER "Royal Philharmonic Orchestra - H.Scherchen"
INDEX 00 31:01:11
INDEX 01 31:05:11
TRACK 05 AUDIO
TITLE "C.Saint-Saens - Le Carnaval des animaux: Introduction"
PERFORMER "G.Moore; Wiener Staatsopernorchester - H.Scherchen"
INDEX 00 43:41:35
INDEX 01 43:49:35
TRACK 06 AUDIO
TITLE "Marche royale du lion"
PERFORMER "G.Moore; Wiener Staatsopernorchester - H.Scherchen"
INDEX 01 44:46:53
TRACK 07 AUDIO
TITLE "Poules et coqs"
PERFORMER "G.Moore; Wiener Staatsopernorchester - H.Scherchen"
INDEX 01 46:17:69
TRACK 08 AUDIO
TITLE "Hemiones"
PERFORMER "G.Moore; Wiener Staatsopernorchester - H.Scherchen"
INDEX 01 47:33:51
TRACK 09 AUDIO
TITLE "Tortues"
PERFORMER "G.Moore; Wiener Staatsopernorchester - H.Scherchen"
INDEX 01 48:38:26
TRACK 10 AUDIO
TITLE "L'elephant"
PERFORMER "G.Moore; Wiener Staatsopernorchester - H.Scherchen"
INDEX 01 50:38:52
TRACK 11 AUDIO
TITLE "Kangourous"
PERFORMER "G.Moore; Wiener Staatsopernorchester - H.Scherchen"
INDEX 01 52:57:32
TRACK 12 AUDIO
TITLE "Aquarium"
PERFORMER "G.Moore; Wiener Staatsopernorchester - H.Scherchen"
INDEX 01 54:25:25
TRACK 13 AUDIO
TITLE "Animaux a longues oreilles"
PERFORMER "G.Moore; Wiener Staatsopernorchester - H.Scherchen"
INDEX 01 57:15:04
TRACK 14 AUDIO
TITLE "Le coucou"
PERFORMER "G.Moore; Wiener Staatsopernorchester - H.Scherchen"
INDEX 01 58:11:31
TRACK 15 AUDIO
TITLE "Voliere"
PERFORMER "G.Moore; Wiener Staatsopernorchester - H.Scherchen"
INDEX 01 60:45:62
TRACK 16 AUDIO
TITLE "Pianistes"
PERFORMER "G.Moore; Wiener Staatsopernorchester - H.Scherchen"
INDEX 01 62:41:59
TRACK 17 AUDIO
TITLE "Fossiles"
PERFORMER "G.Moore; Wiener Staatsopernorchester - H.Scherchen"
INDEX 01 64:54:11
TRACK 18 AUDIO
TITLE "Le cygne"
PERFORMER "G.Moore; Wiener Staatsopernorchester - H.Scherchen"
INDEX 01 66:35:10
TRACK 19 AUDIO
TITLE "Finale"
PERFORMER "G.Moore; Wiener Staatsopernorchester - H.Scherchen"
INDEX 01 69:27:31
Исполнители:
Lucretia West [Mahler]
Wiener Staatsopernorchester
Royal Philharmonic Orchestra
[Liszt]
Hermann Scherchen-Доп. информация: Очередное, шестое издание из tahra'вского многотомника записей Германа Шерхена. Самое интересное здесь - это "Карнавал животных" Сен-Санса с чтецом и предварительно записанными голосами животных Бронкского зоопарка. Буклет сообщает, что инженерам Westminster пришлось провести в зоопарке несколько дней, прежде чем удалось сделать подходящие записи льва Лео и слона Джумбо .-



Показать сообщения:    

Текущее время: 11-Дек 16:51

Часовой пояс: UTC + 3


Вы не можете начинать темы
Вы не можете отвечать на сообщения
Вы не можете редактировать свои сообщения
Вы не можете удалять свои сообщения
Вы не можете голосовать в опросах
Вы не можете прикреплять файлы к сообщениям
Вы не можете скачивать файлы