Поэма о топоре (Владимир Богомолов, Надежда Марусалова (Иваненкова)) [1968, киноповесть, экранизация, WEB-DLRip] Московский Художественный академический театр имени М. Горького


 

[Цитировать]

Поэма о топоре
Название театра: Московский Художественный академический театр имени М. Горького
Жанр: киноповесть, экранизация
Год выпуска: 1968
Продолжительность: 01:06:56
Режиссёр: Владимир Богомолов, Надежда Марусалова (Иваненкова)
В ролях: Нина Гуляева, Вячеслав Невинный, Михаил Зимин, Владимир Кашпур, Юрий Пузырёв, Татьяна Ленникова, Лев Иванов, Виктор Новосельский, Николай Шавыкин, Вячеслав Степанов, Всеволод Шиловский, Анатолий Семёнов, Валерия Дементьева, Ирина Ефремова (III), Виктор Петров, Александр Акимов, Александр Пермяков
Описание: Телеспектакль по одноименной пьесе Н.Погодина о создании новой марки стали на крупном металлургическом заводе.
Доп. информация:
В тридцатые годы прошлого века режиссеры начали активные поиски близкой и понятной народу пьесы. Постановщики взывали: Дайте! И такая пьеса нашлась. Дал ее молодой в то время корреспондент «Правды» Николай Погодин. Пьеса имела ошеломительный успех. Это был сценический рассказ об обитателях заводских поселков, которые выплавили новую марку нержавеющей стали. Пьеса называлась «Поэма о топоре». Погодин изобразил новый образ положительного героя. Эти люди, такие как Степан и Анна в «Поэме о топоре», полны жизненных сил и оптимистичны; ими движут интересы социализма, которые уже являются и их личными интересами. С данной пьесы начался карьерный рост драматурга Николая Погодина. Он стал лауреатом Ленинской и Государственных премий СССР, автором сценариев таких известных фильмов, как «Первый эшелон», «Кубанские казаки», «Борец и клоун». Его пьесы ставились на сценах лучших театров страны.
Семпл: http://sendfile.su/1109603
Качество видео: WEB-DLRip
Формат видео: AVI
Видео: XVID; 592x448; 4:3; 25 fps; 1298 Kbps
Аудио: Rus; MP3; 44.1 KHz; 128 Kbps; stereo

MediaInfo

General
Format : AVI
Format/Info : Audio Video Interleave
File size : 688 MiB
Duration : 1h 6mn
Overall bit rate : 1 438 Kbps
Writing application : MEncoder 1.0rc2-4.2.4
Writing library : MPlayer
Video #0
ID : 0
Format : MPEG-4 Visual
Format profile : Simple@L3
Format settings, BVOP : No
Format settings, QPel : No
Format settings, GMC : No warppoints
Format settings, Matrix : Default (H.263)
Codec ID : XVID
Codec ID/Hint : XviD
Duration : 1h 6mn
Bit rate : 1 298 Kbps
Width : 592 pixels
Height : 448 pixels
Display aspect ratio : 4:3
Original display aspect ratio : 4:3
Frame rate : 25.000 fps
Color space : YUV
Chroma subsampling : 4:2:0
Bit depth : 8 bits
Scan type : Progressive
Compression mode : Lossy
Bits/(Pixel*Frame) : 0.196
Stream size : 621 MiB (90%)
Writing library : XviD 1.1.2 (UTC 2006-11-01)
Audio #1
ID : 1
Format : MPEG Audio
Format version : Version 1
Format profile : Layer 3
Codec ID : 55
Codec ID/Hint : MP3
Duration : 1h 6mn
Bit rate mode : Constant
Bit rate : 128 Kbps
Channel(s) : 2 channels
Sampling rate : 44.1 KHz
Compression mode : Lossy
Stream size : 61.3 MiB (9%)
Alignment : Aligned on interleaves
Interleave, duration : 26 ms (0.65 video frame)
Interleave, preload duration : 522 ms

Скриншот с названием постановки

Скриншоты










Показать сообщения:    

Текущее время: 11-Дек 14:57

Часовой пояс: UTC + 3


Вы не можете начинать темы
Вы не можете отвечать на сообщения
Вы не можете редактировать свои сообщения
Вы не можете удалять свои сообщения
Вы не можете голосовать в опросах
Вы не можете прикреплять файлы к сообщениям
Вы не можете скачивать файлы