(Classical) Joachim Raff - Symphony No.2; Four Shakespeare Preludes - Orchestre de la Suisse Romande, Neeme Järvi (Jarvi) - 2013, FLAC (image+.cue) lossless


 

[Цитировать]

Joachim Raff - Symphony No.2; Four Shakespeare Preludes - Orchestre de la Suisse Romande, Neeme Järvi
Жанр: Classical
Страна-производитель диска: UK
Год издания диска: 2013
Издатель (лейбл): Chandos Records
Номер по каталогу: CHSA 5117
Дата записи: 2012
Аудиокодек: FLAC
Тип рипа: image+.cue
Битрейт аудио: lossless
Продолжительность: 77:47
Источник: собственный рип
Наличие сканов в содержимом раздачи: да
Треклист:
Joachim Raff (1822 – 1882)
[1]-[4] Symphony No.2 in C major, Op. 140 (1866)
[5] Orchestral Prelude to Shakespeare’s ‘The Tempest’ in G minor, WoO 49 (1879)
[6] Orchestral Prelude to Shakespeare’s ‘Macbeth’ in C minor, WoO 50 (1879)
[7] Orchestral Prelude to Shakespeare’s ‘Romeo and Juliet’ in D major, WoO 51 (1879)
[8] Orchestral Prelude to Shakespeare’s ‘Othello’ in D major, WoO 52 (1879)
Исполнители:
Orchestre de la Suisse Romande
Neeme Järvi

Лог создания рипа

Exact Audio Copy V1.0 beta 3 from 29. August 2011
EAC extraction logfile from 16. April 2015, 1:04
Orchestre de la Suisse Romande, Neeme Järvi / Raff - Symphony No.2; Four Shakespeare Preludes
Used drive : HL-DT-STDVDRAM GU70N Adapter: 0 ID: 0
Read mode : Secure
Utilize accurate stream : Yes
Defeat audio cache : Yes
Make use of C2 pointers : No
Read offset correction : 48
Overread into Lead-In and Lead-Out : No
Fill up missing offset samples with silence : Yes
Delete leading and trailing silent blocks : No
Null samples used in CRC calculations : Yes
Used interface : Native Win32 interface for Win NT & 2000
Used output format : User Defined Encoder
Selected bitrate : 128 kBit/s
Quality : High
Add ID3 tag : No
Command line compressor : C:\Program Files (x86)\Exact Audio Copy\Flac\flac.exe
Additional command line options : -V -8 -T "Date=%year%" -T "Genre=%genre%" %source%
TOC of the extracted CD
Track | Start | Length | Start sector | End sector
---------------------------------------------------------
1 | 0:00.00 | 12:38.38 | 0 | 56887
2 | 12:38.38 | 7:26.10 | 56888 | 90347
3 | 20:04.48 | 5:31.45 | 90348 | 115217
4 | 25:36.18 | 8:13.65 | 115218 | 152257
5 | 33:50.08 | 14:17.30 | 152258 | 216562
6 | 48:07.38 | 11:29.00 | 216563 | 268237
7 | 59:36.38 | 9:53.00 | 268238 | 312712
8 | 69:29.38 | 8:16.37 | 312713 | 349949
Range status and errors
Selected range
Filename C:\temp\CHSA_5117 - Raff - Symphony No.2; 4 Shakespeare Preludes\Raff - Symphony No.2; Four Shakespeare Preludes.wav
Peak level 95.5 %
Extraction speed 2.3 X
Range quality 100.0 %
Test CRC 90AA0B8F
Copy CRC 90AA0B8F
Copy OK
No errors occurred
AccurateRip summary
Track 1 accurately ripped (confidence 5) [56B851CA] (AR v2)
Track 2 accurately ripped (confidence 5) [C69B33E4] (AR v2)
Track 3 accurately ripped (confidence 5) [64DFFA89] (AR v2)
Track 4 accurately ripped (confidence 5) [689F875E] (AR v2)
Track 5 accurately ripped (confidence 5) [53BF7760] (AR v2)
Track 6 accurately ripped (confidence 5) [5E661C6C] (AR v2)
Track 7 accurately ripped (confidence 5) [0E8AD5BD] (AR v2)
Track 8 accurately ripped (confidence 5) [2A8BF884] (AR v2)
All tracks accurately ripped
End of status report
==== Log checksum 83B8EF0E5F224FB83B2B9C591AA1DE631BCA2302AA667BBE2EE96677BA683455 ====



Показать сообщения:    

Текущее время: 04-Дек 02:55

Часовой пояс: UTC + 3


Вы не можете начинать темы
Вы не можете отвечать на сообщения
Вы не можете редактировать свои сообщения
Вы не можете удалять свои сообщения
Вы не можете голосовать в опросах
Вы не можете прикреплять файлы к сообщениям
Вы не можете скачивать файлы