Светлана Аллилуева. Дочь за отца (Андрей Симонов) [2014, Документальный, история, биография, DVB]


Статистика раздачи [Обновить пиров]
Размер:  986 MB   |    Зарегистрирован:  8 месяцев 22 дня   |    Скачан:  0 раз

Полного источника не было: Никогда

 
   
 
 
 

[Цитировать]

Светлана Аллилуева. Дочь за отца
Дата/Год выпуска: 2014
Страна: Россия
Жанр: Документальный, история, биография
Продолжительность: 00:38:34
Перевод: Не требуется
Режиссер: Андрей Симонов
Телеканал: ТВ Центр–International
Описание:
Светлана Аллилуева - "Кремлёвская принцесса" - так называли её в ближайшем окружении Сталина. Сам "вождь народов" обожал самую "младшенькую", любил, когда "маленький воробушек" отдаёт приказы, и с удовольствием выполнял её капризы. Казалось бы, её ждёт счастливое будущее!? Когда же "папина дочка" выросла и вышла из подчинения? Почему Светлана в детстве боготворила отца, а повзрослев, возненавидела и отказалась не только от его фамилии, но даже отреклась от своей Родины? Как жизнь дочери Генералиссимуса превратилась в "бегство от отца"?
Доп. информация: В фильме принимают участие: Александр Аллилуев – двоюродный брат Светланы Аллилуевой, Илья Вознесенский – племянник, Александр Бурдонский – сын Василия Сталина, Ольга Ривкина – подруга, Рэм Меркулов – друг и одноклассник Светланы, Джумбер Патиашвили – советский и российский государственный деятель, Елена Ханга – телеведущая, Лейла Сикмашвили – грузинская подруга Светланы, Ламара Гагуа – заместитель министра просвещения Грузинской СССР, Елена Новомлинская – журналист, психолог.
Сэмпл: https://www.sendspace.com/file/u1pl8e
качество: DVB
формат: MPG
Видео: MPEG2, 720x576 (16:9), 3400 Кбит/сек, 25,000 кадров/сек
Аудио: MP2, 128 Кбит/сек, 48,0 КГц, 2 канала

MediaInfo

Общее
Полное имя : Светлана Аллилуева. Дочь за отца.mpg
Формат : MPEG-PS
Размер файла : 986 Мбайт
Продолжительность : 38 м.
Общий поток : 3574 Кбит/сек
Видео
Идентификатор : 224 (0xE0)
Формат : MPEG Video
Версия формата : Version 2
Профиль формата : Main@Main
Параметр BVOP формата : Да
Параметр матрицы формата : Выборочная
Параметр GOP формата : M=3, N=24
Продолжительность : 38 м.
Битрейт : 3400 Кбит/сек
Ширина : 720 пикселей
Высота : 576 пикселей
Соотношение сторон : 16:9
Частота кадров : 25,000 кадров/сек
Стандарт вещания : PAL
Цветовое пространство : YUV
Субдискретизация насыщенности : 4:2:0
Битовая глубина : 8 бит
Тип развёртки : Чересстрочная
Порядок развёртки : Верхнее поле первое
Метод сжатия : С потерями
Бит/(Пиксели*Кадры) : 0.328
Временной код первого кадра : 00:00:00:00
Оригинал временного кода : Group of pictures header
Размер потока : 931 Мбайт (94%)
Аудио
Идентификатор : 192 (0xC0)
Формат : MPEG Audio
Версия формата : Version 1
Профиль формата : Layer 2
Продолжительность : 38 м.
Вид битрейта : Постоянный
Битрейт : 128 Кбит/сек
Каналы : 2 канала
Частота : 48,0 КГц
Метод сжатия : С потерями
Задержка видео : 7 мс.
Размер потока : 35,3 Мбайт (4%)

Скриншоты

Запись потока *.ts произведена тюнером цифрового телевидения. В связи с тем, что не все плееры воспроизводят поток *.ts (MPEG-TS) , в данном видеофайле мной был сделан ремукс потока *.ts (MPEG-TS) в *.mpg (MPEG-PS) программой VideoReDo.
[teatrix.ru].t20976.torrent 
Торрент: Зарегистрирован [ 2016-03-20 00:56 ] · 324963108C9F18DFE7DDA88D13BD271343998AA4

Скачать .torrent

Скачать

20 KB

Статус: проверено
Скачан: 0 раз
Размер: 986 MB
terms.php



Быстрый ответ

Имя:

      
Для отправки сообщений необходимо включить JavaScript
Показать сообщения:    

Текущее время: 11-Дек 11:05

Часовой пояс: UTC + 3


Вы можете начинать темы
Вы можете отвечать на сообщения
Вы не можете редактировать свои сообщения
Вы не можете удалять свои сообщения
Вы не можете голосовать в опросах
Вы не можете прикреплять файлы к сообщениям
Вы можете скачивать файлы