[TR24][OF] Maria Callas - Callas à Paris: More Arias from French Opera [1963] - Maria Callas, Orchestre de la Société des Concerts du Conservatoire, Georges Prêtre (Pretre) - 2014 (Classical, Opera)


Статистика раздачи [Обновить пиров]
Размер:  893 MB   |    Зарегистрирован:  8 месяцев 15 дней   |    Скачан:  0 раз

Полного источника не было: Никогда

 
   
 
 
 

[Цитировать]

MARIA CALLAS
Callas à Paris: More Arias from French Opera
Orchestre de la Société des Concerts du Conservatoire · Georges Prêtre
- Год издания: 2014
Жанр: Classical, Opera
Издатель (лейбл): Warner Classics
Продолжительность: 00:43:49
Наличие сканов: Covers, Digital Booklet
- -
Christoph Willibald Gluck (1714-1787)
Iphigénie en Tauride
01. Act 2: "O malheureuse Iphigénie!" (Iphigénie) (4:33)
Hector Berlioz (1803-1869)
La Damnation de Faust, Op. 24
02. "D'amour l'ardente flamme" (Marguerite) (8:15)
Georges Bizet (1838-1875)
Les Pêcheurs de perles
03. 'The Pearl Fishers', Act 2: "Ma voila seule......Comme autrefois" (Leïla) (6:02)
Jules Massenet (1842-1912)
Manon
04. Act 2: "Je ne suis que faiblesse... Adieu, notre petite table" (Manon) (3:23)
05. Act 3: "Suis-je gentille ainsi? ... Je marche sur tous les chemins" (Manon) (2:52)
Werther
06. Act 3: "Werther! Qui m'aurait dit la place... Des cris joyeux" (Charlotte - Air des lettres) (7:06)
Charles Gounod (1818-1893)
Faust
07. Act 3: "Il était un Roi de Thulé...O Dieu!que de bijoux...Ah! je ris" (Marguerite - Jewel Song) (11:36)

-
Maria Callas, soprano
Orchestre de la Société des Concerts du Conservatoire
Georges Prêtre, conductor
Recorded: 3–4, 6–8.V.1963, Salle Wagram, Paris
-Контейнер: FLAC (*.flac)
Тип рипа: tracks
Разрядность: 24bit / 96kHz
Количество каналов: 2.0
-О релизе
Colourful and temper
As in her first Callas à Paris recital, recorded two years previously, the diva performs arias of diverse weight, colour and mood – from the darker tones of Berlioz’s Marguerite to the brilliant ‘Jewel Song’ of Gounod’s Marguerite, and from the mezzo-ish melancholy of Massenet’s Charlotte to the soprano coquetry of the same composer’s Manon. ‘Simply as an artist,’ wrote Gramophone in its review of the recital, ‘in her sense of line, her feeling for a word, her command of colour and her mastery of the whole complex art of interpretation – [Callas] is so far ahead of all other contemporary singers, and of all but the greatest past singers, too, that she almost spoils us for the rest.’
Maria Callas, soprano
Orchestre De La Société Des Concerts Du Conservatoire
Georges Prêtre, conductor
Digitally remastered

ОтчётыДинамический диапазон

foobar2000 1.2.2 / Dynamic Range Meter 1.1.1
log date: 2015-04-11 18:36:43
--------------------------------------------------------------------------------
Analyzed: Maria Callas, Orchestre de la Société des Concerts du Conservatoire, Georges Prêtre / Callas à Paris: More Arias from French Opera (1963)
--------------------------------------------------------------------------------
DR Peak RMS Duration Track
--------------------------------------------------------------------------------
DR8 -0.98 dB -14.49 dB 4:33 ?-Iphigénie en Tauride: Act 2: "O malheureuse Iphigénie!" (Iphigénie)
DR11 -0.70 dB -17.74 dB 8:15 ?-La Damnation de Faust, Op. 24: "D'amour l'ardente flamme" (Marguerite)
DR10 -1.40 dB -17.41 dB 6:02 ?-Les Pêcheurs de perles: 'The Pearl Fishers', Act 2: "Ma voila seule......Comme autrefois" (Leïla)
DR11 -0.01 dB -18.36 dB 3:23 ?-Manon: Act 2: "Je ne suis que faiblesse... Adieu, notre petite table" (Manon)
DR10 -0.54 dB -15.31 dB 2:52 ?-Manon: Act 3: "Suis-je gentille ainsi? ... Je marche sur tous les chemins" (Manon)
DR10 -0.11 dB -17.53 dB 7:06 ?-Werther: Act 3: "Werther! Qui m'aurait dit la place... Des cris joyeux" (Charlotte - Air des lettres)
DR11 -0.93 dB -17.90 dB 11:36 ?-Faust: Act 3: "Il était un Roi de Thulé...O Dieu!que de bijoux...Ah! je ris" (Marguerite - Jewel Song)
--------------------------------------------------------------------------------
Number of tracks: 7
Official DR value: DR10
Samplerate: 96000 Hz
Channels: 2
Bits per sample: 24
Bitrate: 2844 kbps
Codec: FLAC
================================================================================

Скриншот спектра частот

Доп. информация

При скачивании, если необходимо, переименуйте папку, в которой будет находиться альбомБольшая просьба к скачавшим поддерживать раздачу! Помогайте другим, ведь вам тоже может понадобиться помощь!Не забываем говорить "Спасибо"!Комментарии приветствуются!
Maria Callas Hi-Res
[teatrix.ru].t20977.torrent 
Торрент: Зарегистрирован [ 2016-03-20 00:56 ] · D813FC7A019B438D03446215EA22AAD6991833F7

Скачать .torrent

Скачать

19 KB

Статус: проверено
Скачан: 0 раз
Размер: 893 MB
terms.php



Быстрый ответ

Имя:

      
Для отправки сообщений необходимо включить JavaScript
Показать сообщения:    

Текущее время: 04-Дек 11:15

Часовой пояс: UTC + 3


Вы можете начинать темы
Вы можете отвечать на сообщения
Вы не можете редактировать свои сообщения
Вы не можете удалять свои сообщения
Вы не можете голосовать в опросах
Вы не можете прикреплять файлы к сообщениям
Вы можете скачивать файлы