(Classical, Piano, Violin) Fazıl (Fazil) Say - Black Earth - 2003, FLAC (tracks+.cue) lossless


 

[Цитировать]

- Fazıl Say -- Black Earth - --Жанр: Classical, Piano, ViolinНоситель: CD
Страна-производитель диска: France
Год издания диска: 2003
Издатель (лейбл): Naïve
Номер по каталогу: V 4954
Страна: Greece
Аудиокодек: FLAC (*.flac)
Тип рипа: tracks+.cue
Битрейт аудио: lossless
Продолжительность: 00:53:45
Источник (релизер): what.cd (erd0s)
Наличие сканов в содержимом раздачи: да-Треклист:
01. Black Earth - (05:28)
Sonata For Violin And Piano, Op. 7
02. I. Intruduction: Melancholy - (03:17)
03. II. Grotesque - (02:05)
04. III. Perpetuum Mobile - (01:49)
05. IV. Untitled - (03:11)
06. V. Epilog: Melancholy - (03:29)
07. Silk Road Concerto - (15:31)
08. Silence Of Anatolia - (07:17)
09. Obstinacy - (04:14)
10. Paganini Variations For Piano - (03:56)
11. Dervish In Manhattan - (03:28)
Исполнители:
Fazil Say - piano
Laurent Korcia - violin (2-6)
Orquestra de Camara Gulbenkian | Muhai Tang (7)
Orchestre National de France | Eliahu Inbal (8-9)
Fazil Say | Kudsi Erquner Quartet (11)Track 1 recorded at "Internationale Beethovenfeste", September 2002, Bonn, Germany; 2 to 6 at "Teldex Studio", March 2003, Berlin, Germany; 7 at "Gulbenkian Foundation", 2001, Lisboa, Portugal; 8, 9 at "Théâtre des Champs-Élysées", January 2002, Paris, France; 10 at "Lucerne Festival, Lucerne Culture and Convention Centre", November 2002, Switzerland; "Radio France & Montpellier Festival", July 2000, France.

Fazil Say

Фазиль Сай (тур. Fazıl Say; род. 14 января 1970, Анкара) — турецкий пианист и композитор.
Учился в Анкарской консерватории у Митхата Фенмена, затем в 1991—1995 гг. в Дюссельдорфе и Берлине. Ещё в Турции Сай был замечен немецкими специалистами: в 1987 г. сочинение юного музыканта «Чёрные гимны» (тур. Siyah İlahiler) исполнялось в Берлине в рамках празднования 750-летия города. Среди последующих сочинений Фазиля Сая наибольшее признание получили Второй концерт для фортепиано с оркестром «Шёлковый путь» (тур. İpekyolu; 1994), «Четыре танца для Ходжи Насреддина» для фортепиано соло (1991), оратория «Назым» на стихи Назыма Хикмета (2001). Многие произведения Фазиля Сая соединяют академическую традицию с элементами джаза и турецкой народной музыки: так, в частности, на тему «Турецкого рондо» Моцарта Сай написал вариацию в джазовом духе, а в 2006 г. в Вене состоялась премьера балета Фазиля Сая «Патара» на тему из фортепианной сонаты Моцарта KV 331 — для сопрано, фортепиано и турецких народных инструментов.
В репертуаре Сая-пианиста важное место занимают произведения Баха и Моцарта, которые могут в концертной программе сочетаться с его собственными сочинениями. Оригинальный жест совершил Сай в 2000 г. записав собственное переложение «Весны священной» Игоря Стравинского для двух фортепиано в собственном исполнении обеих партий.
Сай много выступал дуэтом со скрипачом Максимом Венгеровым — в 2004 г. их концерт состоялся и в Москве. Сольный концерт Сая в Москве в 2006 г. получил высокую оценку российского рецензента, писавшего: «Едва касаясь клавиш, Фазиль Сай словно уносился в иное измерение; в случае с иными артистами „игра лицом“ может раздражать, но здесь она была совершенно естественной, выражая безграничную любовь к исполняемой музыке и полное слияние с ней».

Лог создания рипа

X Lossless Decoder version 20100117 (115.3)
XLD extraction logfile from 2010-01-22 20:59:53 -0600
Fazil Say / Black Earth
Used drive : MATSHITA CD-RW CW-8124 (revision DACH)
Use cdparanoia mode : YES (CDParanoia III 10.2 engine)
Disable audio cache : OK for the drive with cache less than 2750KB
Make use of C2 pointers : NO
Read offset correction : 102
Max retry count : 100
TOC of the extracted CD
Track | Start | Length | Start sector | End sector
---------------------------------------------------------
1 | 00:00:00 | 05:28:30 | 0 | 24629
2 | 05:28:30 | 03:17:31 | 24630 | 39435
3 | 08:45:61 | 02:05:14 | 39436 | 48824
4 | 10:51:00 | 01:48:42 | 48825 | 56966
5 | 12:39:42 | 03:11:10 | 56967 | 71301
6 | 15:50:52 | 03:28:41 | 71302 | 86942
7 | 19:19:18 | 15:30:67 | 86943 | 156759
8 | 34:50:10 | 07:16:62 | 156760 | 189521
9 | 42:06:72 | 04:13:47 | 189522 | 208543
10 | 46:20:44 | 03:56:03 | 208544 | 226246
11 | 50:16:47 | 03:27:74 | 226247 | 241845
Track 01
Filename : /Users/patriciaschiff/Documents/Lou's Stuff/Torrents/Rabid/01 Fazil Say - Black Earth.flac
/Users/patriciaschiff/Documents/Lou's Stuff/Torrents/Rabid/01 Fazil Say - Black Earth.mp3
Pre-gap length : 00:02:00
CRC32 hash (test run) : F29C2EF5
CRC32 hash : F29C2EF5
CRC32 hash (skip zero) : 247C3BD7
AccurateRip signature : BE21B43B
->Accurately ripped! (confidence 5)
Statistics
Read error : 0
Skipped (treated as error) : 0
Edge jitter error (maybe fixed) : 0
Atom jitter error (maybe fixed) : 0
Drift error (maybe fixed) : 0
Dropped bytes error (maybe fixed) : 0
Duplicated bytes error (maybe fixed) : 0
Inconsistency in error sectors : 0
Track 02
Filename : /Users/patriciaschiff/Documents/Lou's Stuff/Torrents/Rabid/02 Fazil Say - Violin Sonata, Op. 7 - Mvt. 1.flac
/Users/patriciaschiff/Documents/Lou's Stuff/Torrents/Rabid/02 Fazil Say - Violin Sonata, Op. 7 - Mvt. 1.mp3
CRC32 hash (test run) : 7BD7E134
CRC32 hash : 7BD7E134
CRC32 hash (skip zero) : 4316EC24
AccurateRip signature : 0DD36DC2
->Accurately ripped! (confidence 5)
Statistics
Read error : 0
Skipped (treated as error) : 0
Edge jitter error (maybe fixed) : 0
Atom jitter error (maybe fixed) : 0
Drift error (maybe fixed) : 0
Dropped bytes error (maybe fixed) : 0
Duplicated bytes error (maybe fixed) : 0
Inconsistency in error sectors : 0
Track 03
Filename : /Users/patriciaschiff/Documents/Lou's Stuff/Torrents/Rabid/03 Fazil Say - Violin Sonata, Op. 7 - Mvt. 2.flac
/Users/patriciaschiff/Documents/Lou's Stuff/Torrents/Rabid/03 Fazil Say - Violin Sonata, Op. 7 - Mvt. 2.mp3
CRC32 hash (test run) : C76664AA
CRC32 hash : C76664AA
CRC32 hash (skip zero) : C989C587
AccurateRip signature : D8D45B43
->Accurately ripped! (confidence 5)
Statistics
Read error : 0
Skipped (treated as error) : 0
Edge jitter error (maybe fixed) : 0
Atom jitter error (maybe fixed) : 0
Drift error (maybe fixed) : 0
Dropped bytes error (maybe fixed) : 0
Duplicated bytes error (maybe fixed) : 0
Inconsistency in error sectors : 0
Track 04
Filename : /Users/patriciaschiff/Documents/Lou's Stuff/Torrents/Rabid/04 Fazil Say - Violin Sonata, Op. 7 - Mvt. 3.flac
/Users/patriciaschiff/Documents/Lou's Stuff/Torrents/Rabid/04 Fazil Say - Violin Sonata, Op. 7 - Mvt. 3.mp3
CRC32 hash (test run) : B2CFC706
CRC32 hash : B2CFC706
CRC32 hash (skip zero) : 5AEDF017
AccurateRip signature : 7D61ED05
->Accurately ripped! (confidence 5)
Statistics
Read error : 0
Skipped (treated as error) : 0
Edge jitter error (maybe fixed) : 0
Atom jitter error (maybe fixed) : 0
Drift error (maybe fixed) : 0
Dropped bytes error (maybe fixed) : 0
Duplicated bytes error (maybe fixed) : 0
Inconsistency in error sectors : 0
Track 05
Filename : /Users/patriciaschiff/Documents/Lou's Stuff/Torrents/Rabid/05 Fazil Say - Violin Sonata, Op. 7 - Mvt. 4.flac
/Users/patriciaschiff/Documents/Lou's Stuff/Torrents/Rabid/05 Fazil Say - Violin Sonata, Op. 7 - Mvt. 4.mp3
CRC32 hash (test run) : 7328D7DE
CRC32 hash : 7328D7DE
CRC32 hash (skip zero) : FA71FEC8
AccurateRip signature : 5684FF9B
->Accurately ripped! (confidence 5)
Statistics
Read error : 0
Skipped (treated as error) : 0
Edge jitter error (maybe fixed) : 0
Atom jitter error (maybe fixed) : 0
Drift error (maybe fixed) : 0
Dropped bytes error (maybe fixed) : 0
Duplicated bytes error (maybe fixed) : 0
Inconsistency in error sectors : 0
Track 06
Filename : /Users/patriciaschiff/Documents/Lou's Stuff/Torrents/Rabid/06 Fazil Say - Violin Sonata, Op. 7 - Mvt. 5.flac
/Users/patriciaschiff/Documents/Lou's Stuff/Torrents/Rabid/06 Fazil Say - Violin Sonata, Op. 7 - Mvt. 5.mp3
CRC32 hash (test run) : 9B320B3F
CRC32 hash : 9B320B3F
CRC32 hash (skip zero) : 291BB84C
AccurateRip signature : F7671F87
->Accurately ripped! (confidence 5)
Statistics
Read error : 0
Skipped (treated as error) : 0
Edge jitter error (maybe fixed) : 0
Atom jitter error (maybe fixed) : 0
Drift error (maybe fixed) : 0
Dropped bytes error (maybe fixed) : 0
Duplicated bytes error (maybe fixed) : 0
Inconsistency in error sectors : 0
Track 07
Filename : /Users/patriciaschiff/Documents/Lou's Stuff/Torrents/Rabid/07 Fazil Say - Silk Road Concerto.flac
/Users/patriciaschiff/Documents/Lou's Stuff/Torrents/Rabid/07 Fazil Say - Silk Road Concerto.mp3
CRC32 hash (test run) : 16155BD8
CRC32 hash : 16155BD8
CRC32 hash (skip zero) : DEB2AD6B
AccurateRip signature : D993FEB0
->Accurately ripped! (confidence 4)
Statistics
Read error : 0
Skipped (treated as error) : 0
Edge jitter error (maybe fixed) : 0
Atom jitter error (maybe fixed) : 0
Drift error (maybe fixed) : 0
Dropped bytes error (maybe fixed) : 0
Duplicated bytes error (maybe fixed) : 0
Inconsistency in error sectors : 0
Track 08
Filename : /Users/patriciaschiff/Documents/Lou's Stuff/Torrents/Rabid/08 Fazil Say - Silence Of Anatolia.flac
/Users/patriciaschiff/Documents/Lou's Stuff/Torrents/Rabid/08 Fazil Say - Silence Of Anatolia.mp3
CRC32 hash (test run) : C4F1B01E
CRC32 hash : C4F1B01E
CRC32 hash (skip zero) : 9EA16940
AccurateRip signature : 5C93ADB0
->Accurately ripped! (confidence 5)
Statistics
Read error : 0
Skipped (treated as error) : 0
Edge jitter error (maybe fixed) : 0
Atom jitter error (maybe fixed) : 0
Drift error (maybe fixed) : 0
Dropped bytes error (maybe fixed) : 0
Duplicated bytes error (maybe fixed) : 0
Inconsistency in error sectors : 0
Track 09
Filename : /Users/patriciaschiff/Documents/Lou's Stuff/Torrents/Rabid/09 Fazil Say - Obstinacy.flac
/Users/patriciaschiff/Documents/Lou's Stuff/Torrents/Rabid/09 Fazil Say - Obstinacy.mp3
CRC32 hash (test run) : C292637C
CRC32 hash : C292637C
CRC32 hash (skip zero) : 64E04749
AccurateRip signature : B7786673
->Accurately ripped! (confidence 5)
Statistics
Read error : 0
Skipped (treated as error) : 0
Edge jitter error (maybe fixed) : 0
Atom jitter error (maybe fixed) : 0
Drift error (maybe fixed) : 0
Dropped bytes error (maybe fixed) : 0
Duplicated bytes error (maybe fixed) : 0
Inconsistency in error sectors : 0
Track 10
Filename : /Users/patriciaschiff/Documents/Lou's Stuff/Torrents/Rabid/10 Fazil Say - Paganini Variations.flac
/Users/patriciaschiff/Documents/Lou's Stuff/Torrents/Rabid/10 Fazil Say - Paganini Variations.mp3
CRC32 hash (test run) : F81DCB44
CRC32 hash : F81DCB44
CRC32 hash (skip zero) : 51287FA4
AccurateRip signature : 7E5EBDB5
->Accurately ripped! (confidence 5)
Statistics
Read error : 0
Skipped (treated as error) : 0
Edge jitter error (maybe fixed) : 0
Atom jitter error (maybe fixed) : 0
Drift error (maybe fixed) : 0
Dropped bytes error (maybe fixed) : 0
Duplicated bytes error (maybe fixed) : 0
Inconsistency in error sectors : 0
Track 11
Filename : /Users/patriciaschiff/Documents/Lou's Stuff/Torrents/Rabid/11 Fazil Say - Dervish In Manhattan.flac
/Users/patriciaschiff/Documents/Lou's Stuff/Torrents/Rabid/11 Fazil Say - Dervish In Manhattan.mp3
CRC32 hash (test run) : 99E4B881
CRC32 hash : 99E4B881
CRC32 hash (skip zero) : 21B809DE
AccurateRip signature : E3129843
->Accurately ripped! (confidence 5)
Statistics
Read error : 0
Skipped (treated as error) : 0
Edge jitter error (maybe fixed) : 0
Atom jitter error (maybe fixed) : 0
Drift error (maybe fixed) : 0
Dropped bytes error (maybe fixed) : 0
Duplicated bytes error (maybe fixed) : 0
Inconsistency in error sectors : 0
No errors occurred
End of status report

Содержание индексной карты (.CUE)

TITLE "Black Earth"
PERFORMER "Fazil Say"
REM GENRE "Classical"
REM DATE 2003
FILE "01 Fazil Say - Black Earth.wav" WAVE
TRACK 01 AUDIO
TITLE "Black Earth"
ISRC FRZ130310230
INDEX 01 00:00:00
FILE "02 Fazil Say - Violin Sonata, Op. 7 - Mvt. 1.wav" WAVE
TRACK 02 AUDIO
TITLE "Violin Sonata, Op. 7 - Mvt. 1"
ISRC FRZ130310241
INDEX 01 00:00:00
FILE "03 Fazil Say - Violin Sonata, Op. 7 - Mvt. 2.wav" WAVE
TRACK 03 AUDIO
TITLE "Violin Sonata, Op. 7 - Mvt. 2"
ISRC FRZ130310242
INDEX 01 00:00:00
FILE "04 Fazil Say - Violin Sonata, Op. 7 - Mvt. 3.wav" WAVE
TRACK 04 AUDIO
TITLE "Violin Sonata, Op. 7 - Mvt. 3"
ISRC FRZ130310243
INDEX 01 00:00:00
FILE "05 Fazil Say - Violin Sonata, Op. 7 - Mvt. 4.wav" WAVE
TRACK 05 AUDIO
TITLE "Violin Sonata, Op. 7 - Mvt. 4"
ISRC FRZ130310244
INDEX 01 00:00:00
FILE "06 Fazil Say - Violin Sonata, Op. 7 - Mvt. 5.wav" WAVE
TRACK 06 AUDIO
TITLE "Violin Sonata, Op. 7 - Mvt. 5"
ISRC FRZ130310245
INDEX 01 00:00:00
FILE "07 Fazil Say - Silk Road Concerto.wav" WAVE
TRACK 07 AUDIO
TITLE "Silk Road Concerto"
ISRC FRZ130310250
INDEX 01 00:00:00
FILE "08 Fazil Say - Silence Of Anatolia.wav" WAVE
TRACK 08 AUDIO
TITLE "Silence Of Anatolia"
ISRC FRZ130310261
INDEX 01 00:00:00
FILE "09 Fazil Say - Obstinacy.wav" WAVE
TRACK 09 AUDIO
TITLE "Obstinacy"
ISRC FRZ130310262
INDEX 01 00:00:00
FILE "10 Fazil Say - Paganini Variations.wav" WAVE
TRACK 10 AUDIO
TITLE "Paganini Variations"
ISRC FRZ130310270
INDEX 01 00:00:00
FILE "11 Fazil Say - Dervish In Manhattan.wav" WAVE
TRACK 11 AUDIO
TITLE "Dervish In Manhattan"
ISRC FRZ130310280
INDEX 01 00:00:00



Показать сообщения:    

Текущее время: 04-Дек 13:17

Часовой пояс: UTC + 3


Вы не можете начинать темы
Вы не можете отвечать на сообщения
Вы не можете редактировать свои сообщения
Вы не можете удалять свои сообщения
Вы не можете голосовать в опросах
Вы не можете прикреплять файлы к сообщениям
Вы не можете скачивать файлы