(Classical, Vocal) Fazıl (Fazil) Say - Yeni Şarkılar (Yeni Sarkilar) (feat. Serenad Bağcan (Bagcan)) - 2015, FLAC (tracks+.cue) lossless


 

[Цитировать]

- Fazıl Say & Serenad Bağcan -- Yeni Şarkılar - --Жанр: Classical, VocalНоситель: CD
Страна-производитель диска: Turkey
Год издания диска: 2015
Издатель (лейбл): Ada Müzik
Номер по каталогу: THG 0977815 CZO
Страна: Greece
Аудиокодек: FLAC (*.flac)
Тип рипа: tracks+.cue
Битрейт аудио: lossless
Продолжительность: 00:42:33
Источник (релизер): what.cd (meov)
Наличие сканов в содержимом раздачи: нет-Треклист:
01. Edip Cansever ''Şey Şey Şey Ve Şeylerden - (09:35)
02. Turgut Uyar ''Göğe Bakma Durağı'' - (09:16)
03. Cemal Süreya ''Bu Bizimki'' - (06:36)
04. Nâzım Hikmet ''Masalların Masalı'' - (09:20)
05. Ömer Hayyam ''Ey Kör'' - (07:46)
Исполнители:
Serenad Bağcan (vocal), Fazıl Say (piano)

Fazil Say

Фазиль Сай (тур. Fazıl Say; род. 14 января 1970, Анкара) — турецкий пианист и композитор.
Учился в Анкарской консерватории у Митхата Фенмена, затем в 1991—1995 гг. в Дюссельдорфе и Берлине. Ещё в Турции Сай был замечен немецкими специалистами: в 1987 г. сочинение юного музыканта «Чёрные гимны» (тур. Siyah İlahiler) исполнялось в Берлине в рамках празднования 750-летия города. Среди последующих сочинений Фазиля Сая наибольшее признание получили Второй концерт для фортепиано с оркестром «Шёлковый путь» (тур. İpekyolu; 1994), «Четыре танца для Ходжи Насреддина» для фортепиано соло (1991), оратория «Назым» на стихи Назыма Хикмета (2001). Многие произведения Фазиля Сая соединяют академическую традицию с элементами джаза и турецкой народной музыки: так, в частности, на тему «Турецкого рондо» Моцарта Сай написал вариацию в джазовом духе, а в 2006 г. в Вене состоялась премьера балета Фазиля Сая «Патара» на тему из фортепианной сонаты Моцарта KV 331 — для сопрано, фортепиано и турецких народных инструментов.
В репертуаре Сая-пианиста важное место занимают произведения Баха и Моцарта, которые могут в концертной программе сочетаться с его собственными сочинениями. Оригинальный жест совершил Сай в 2000 г. записав собственное переложение «Весны священной» Игоря Стравинского для двух фортепиано в собственном исполнении обеих партий.
Сай много выступал дуэтом со скрипачом Максимом Венгеровым — в 2004 г. их концерт состоялся и в Москве. Сольный концерт Сая в Москве в 2006 г. получил высокую оценку российского рецензента, писавшего: «Едва касаясь клавиш, Фазиль Сай словно уносился в иное измерение; в случае с иными артистами „игра лицом“ может раздражать, но здесь она была совершенно естественной, выражая безграничную любовь к исполняемой музыке и полное слияние с ней».
-

Лог создания рипа

Exact Audio Copy V1.0 beta 4 from 7. December 2014
EAC extraction logfile from 5. April 2015, 1:42
Fazıl Say / Yeni Şarkılar
Used drive : ASUS DRW-24F1ST a Adapter: 1 ID: 0
Read mode : Secure
Utilize accurate stream : Yes
Defeat audio cache : Yes
Make use of C2 pointers : No
Read offset correction : 6
Overread into Lead-In and Lead-Out : No
Fill up missing offset samples with silence : Yes
Delete leading and trailing silent blocks : No
Null samples used in CRC calculations : Yes
Used interface : Native Win32 interface for Win NT & 2000
Gap handling : Appended to previous track
Used output format : User Defined Encoder
Selected bitrate : 1024 kBit/s
Quality : High
Add ID3 tag : No
Command line compressor : C:\Program Files (x86)\Exact Audio Copy\Flac\flac.exe
Additional command line options : -8 -V -T "ARTIST=%artist%" -T "TITLE=%title%" -T "ALBUM=%albumtitle%" -T "DATE=%year%" -T "TRACKNUMBER=%tracknr%" -T "GENRE=%genre%" -T "PERFORMER=%albuminterpret%" -T "COMPOSER=%composer%" %haslyrics%--tag-from-file=LYRICS="%lyricsfile%"%haslyrics% -T "ALBUMARTIST=%albumartist%" -T "DISCNUMBER=%cdnumber%" -T "TOTALDISCS=%totalcds%" -T "TOTALTRACKS=%numtracks%" -T "COMMENT=%comment%" %source% -o %dest%
TOC of the extracted CD
Track | Start | Length | Start sector | End sector
---------------------------------------------------------
1 | 0:00.00 | 9:35.16 | 0 | 43140
2 | 9:35.16 | 9:16.07 | 43141 | 84847
3 | 18:51.23 | 6:36.04 | 84848 | 114551
4 | 25:27.27 | 9:20.37 | 114552 | 156588
5 | 34:47.64 | 7:45.45 | 156589 | 191508
Track 1
Filename Y:\MEOV's Amazing Rips\Fazıl Say - Yeni Şarkılar (2015) [Flac]\01 - Edip Cansever ''Şey Şey Şey Ve Şeylerden.wav
Pre-gap length 0:00:02.00
Peak level 93.1 %
Extraction speed 4.9 X
Track quality 100.0 %
Test CRC 3DFE7A28
Copy CRC 3DFE7A28
Track not present in AccurateRip database
Copy OK
Track 2
Filename Y:\MEOV's Amazing Rips\Fazıl Say - Yeni Şarkılar (2015) [Flac]\02 - Turgut Uyar ''Göğe Bakma Durağı''.wav
Peak level 93.3 %
Extraction speed 5.4 X
Track quality 99.9 %
Test CRC 388AC24E
Copy CRC 388AC24E
Track not present in AccurateRip database
Copy OK
Track 3
Filename Y:\MEOV's Amazing Rips\Fazıl Say - Yeni Şarkılar (2015) [Flac]\03 - Cemal Süreya ''Bu Bizimki''.wav
Peak level 93.1 %
Extraction speed 5.6 X
Track quality 99.9 %
Test CRC 46583983
Copy CRC 46583983
Track not present in AccurateRip database
Copy OK
Track 4
Filename Y:\MEOV's Amazing Rips\Fazıl Say - Yeni Şarkılar (2015) [Flac]\04 - Nâzım Hikmet ''Masalların Masalı''.wav
Peak level 93.1 %
Extraction speed 7.3 X
Track quality 100.0 %
Test CRC C507B436
Copy CRC C507B436
Track not present in AccurateRip database
Copy OK
Track 5
Filename Y:\MEOV's Amazing Rips\Fazıl Say - Yeni Şarkılar (2015) [Flac]\05 - Ömer Hayyam ''Ey Kör''.wav
Peak level 93.3 %
Extraction speed 7.7 X
Track quality 100.0 %
Test CRC FB111C7A
Copy CRC FB111C7A
Track not present in AccurateRip database
Copy OK
None of the tracks are present in the AccurateRip database
No errors occurred
End of status report
---- CUETools DB Plugin V2.1.4
[CTDB TOCID: QjIf_SWjkAEhfKVF2WEtjGk_O4Q-] found
Submit result: QjIf_SWjkAEhfKVF2WEtjGk_O4Q- has been confirmed
Track | CTDB Status
1 | (4/4) Accurately ripped
2 | (4/4) Accurately ripped
3 | (4/4) Accurately ripped
4 | (4/4) Accurately ripped
5 | (4/4) Accurately ripped
==== Log checksum 3AAFB26F80EA979A3B713854DEEA6AB8C3365B94F7FE4FF121E40AF76C90860D ====

Содержание индексной карты (.CUE)

REM GENRE Classical
REM DATE 2015
REM DISCID 4109F905
REM COMMENT "ExactAudioCopy v1.0b4"
PERFORMER "Fazıl Say"
TITLE "Yeni Şarkılar"
FILE "01 - Edip Cansever ''Şey Şey Şey Ve Şeylerden.wav" WAVE
TRACK 01 AUDIO
TITLE "Edip Cansever ''Şey Şey Şey Ve Şeylerden"
PERFORMER "Fazıl Say"
ISRC TR0281505274
INDEX 01 00:00:00
FILE "02 - Turgut Uyar ''Göğe Bakma Durağı''.wav" WAVE
TRACK 02 AUDIO
TITLE "Turgut Uyar ''Göğe Bakma Durağı''"
PERFORMER "Fazıl Say"
ISRC TR0281505275
INDEX 01 00:00:00
FILE "03 - Cemal Süreya ''Bu Bizimki''.wav" WAVE
TRACK 03 AUDIO
TITLE "Cemal Süreya ''Bu Bizimki''"
PERFORMER "Fazıl Say"
ISRC TR0281505276
INDEX 01 00:00:00
FILE "04 - Nâzım Hikmet ''Masalların Masalı''.wav" WAVE
TRACK 04 AUDIO
TITLE "Nâzım Hikmet ''Masalların Masalı''"
PERFORMER "Fazıl Say"
ISRC TR0281505277
INDEX 01 00:00:00
FILE "05 - Ömer Hayyam ''Ey Kör''.wav" WAVE
TRACK 05 AUDIO
TITLE "Ömer Hayyam ''Ey Kör''"
PERFORMER "Fazıl Say"
ISRC TR0281505278
INDEX 01 00:00:00



Показать сообщения:    

Текущее время: 06-Дек 15:12

Часовой пояс: UTC + 3


Вы не можете начинать темы
Вы не можете отвечать на сообщения
Вы не можете редактировать свои сообщения
Вы не можете удалять свои сообщения
Вы не можете голосовать в опросах
Вы не можете прикреплять файлы к сообщениям
Вы не можете скачивать файлы