Звуковое Шоссе - Сиэтл, (Эпизод 7) 2014 / Foo Fighters: Sonic Highways - Seattle (Episode 7) 2014 (Дэйв Грол/Dave Grohl) [28.11.2014, Документальный, музыкальный, HDTVRip-AVC]


Статистика раздачи [Обновить пиров]
Размер:  503 MB   |    Зарегистрирован:  8 месяцев 20 дней   |    Скачан:  2 раза

Полного источника не было: 5 дней

 
   
 
 
 

[Цитировать]

Звуковое Шоссе - Сиэтл, (Эпизод 7) 2014 / Foo Fighters: Sonic Highways - Seattle (Episode 7) 2014
Дата/Год выпуска: 28.11.2014
Страна: США
Жанр: Документальный, музыкальный
Продолжительность: 00:59:30
Перевод: Любительский (многоголосый закадровый)
Доп. инфо о переводе: Abandoned Studio
Русские субтитры: нет
Оригинальная аудиодорожка: нет
Режиссер: Дэйв Грол/Dave Grohl
Телеканал: HBO
Описание: Дэйв возвращается к своим гранжевым корням, в то время как Foo Fighters готовятся к записи с Беном Гиббортом из Death Cab For Cutie на студии Роберта Ланга, а также изучают музыкальную сцену Сиэтла. Песня "Подземелье" записывается во время этого эпизода.
Сэмпл: Сэмпл
качество: HDTVRip
формат: MP4
Видео: Кодек: H.264 (NTSC), Разрешение кадра: 624 x 350 (16:9), Битрейт: 990 kbps, 23.976 fps
Аудио: Кодек: AAC, Битрейт: 192 kbps, Частота дискретизации: 48000 kHz, Stereo

MediaInfo

Complete name : /Users/applesoranjes/Desktop/Record/Sonic Highways/Episode 7/Seattle, Episode 7.mp4
Format : MPEG-4
Format profile : Base Media / Version 2
Codec ID : mp42
File size : 503 MiB
Duration : 59mn 29s
Overall bit rate mode : Variable
Overall bit rate : 1 183 Kbps
Encoded date : UTC 2015-04-20 14:50:27
Tagged date : UTC 2015-04-20 14:50:42
©TIM : 00:00:00:00
©TSC : 24000
©TSZ : 1001
Video
ID : 1
Format : AVC
Format/Info : Advanced Video Codec
Format profile : Main@L3.2
Format settings, CABAC : Yes
Format settings, ReFrames : 3 frames
Codec ID : avc1
Codec ID/Info : Advanced Video Coding
Duration : 59mn 29s
Source duration : 59mn 29s
Bit rate : 990 Kbps
Width : 624 pixels
Height : 350 pixels
Display aspect ratio : 16:9
Frame rate mode : Variable
Frame rate : 23.976 fps
Minimum frame rate : 23.976 fps
Maximum frame rate : 24.000 fps
Standard : NTSC
Color space : YUV
Chroma subsampling : 4:2:0
Bit depth : 8 bits
Scan type : Progressive
Bits/(Pixel*Frame) : 0.189
Stream size : 421 MiB (84%)
Source stream size : 421 MiB (84%)
Language : English
Encoded date : UTC 2015-04-20 14:50:27
Tagged date : UTC 2015-04-20 14:50:27
Color range : Limited
mdhd_Duration : 3569524
Audio
ID : 2
Format : AAC
Format/Info : Advanced Audio Codec
Format profile : LC
Codec ID : 40
Duration : 59mn 29s
Source duration : 59mn 29s
Bit rate mode : Variable
Bit rate : 192 Kbps
Maximum bit rate : 300 Kbps
Channel(s) : 2 channels
Channel positions : Front: L R
Sampling rate : 48.0 KHz
Compression mode : Lossy
Stream size : 80.6 MiB (16%)
Source stream size : 80.6 MiB (16%)
Language : English
Encoded date : UTC 2015-04-20 14:50:27
Tagged date : UTC 2015-04-20 14:50:27
mdhd_Duration : 3569578

Скриншоты

[teatrix.ru].t20980.torrent 
Торрент: Зарегистрирован [ 2016-03-20 00:56 ] · 2697A4FEF2F6DF0F6E0C82BFFB75C6D3C15C7165

Скачать .torrent

Скачать

20 KB

Статус: проверено
Скачан: 2 раз
Размер: 503 MB
terms.php



Быстрый ответ

Имя:

      
Для отправки сообщений необходимо включить JavaScript
Показать сообщения:    

Текущее время: 09-Дек 22:25

Часовой пояс: UTC + 3


Вы можете начинать темы
Вы можете отвечать на сообщения
Вы не можете редактировать свои сообщения
Вы не можете удалять свои сообщения
Вы не можете голосовать в опросах
Вы не можете прикреплять файлы к сообщениям
Вы можете скачивать файлы