(Classical) Einojuhani Rautavaara - Songs - Jyrki Korhonen, Ilkka Paananen - 2003, FLAC (image+.cue) lossless


 

[Цитировать]

Einojuhani Rautavaara - Songs - Jyrki Korhonen, Ilkka Paananen
Жанр: Classical
Страна-производитель диска: Sweden
Год издания диска: 2003
Издатель (лейбл): BIS
Номер по каталогу: BIS-CD-1141
Дата записи: 2001
Аудиокодек: FLAC
Тип рипа: image+.cue
Битрейт аудио: lossless
Продолжительность: 79:33
Источник: собственный рип
Наличие сканов в содержимом раздачи: да
Треклист:
Einojuhani Rautavaara (b. 1928)
[1]-[3] Maailman uneen (Dream World)
(Texts: Aaro Hellaakoski)
[4]-[6] Three Sonnets of Shakespeare (1952)
[7]-[9] I min älsklings trädgård (In My Lover’s Garden) (1983-87)
(Texts: Edith Södergran)
[10]-[13] Guds väg (God’s Way) (1964)
(Texts: Bo Setterlind)
[14]-[17] Pyhiä päiviä (Sacred Feasts) (1953)
[18]-[22] Fünf Sonette an Orpheus (1954-55)
(Texts: Rainer Maria Rilke)
[23]-[26] Die Liebenden (1958-59)
(Texts: Rainer Maria Rilke)
[27]-[30] Matka (The Trip) (1977)
(Texts: Einojuhani Rautavaara)
Исполнители:
Jyrki Korhonen basso profundo
Ilkka Paananen piano

Лог создания рипа

Exact Audio Copy V1.0 beta 3 from 29. August 2011
EAC extraction logfile from 6. December 2014, 3:08
Jyrki Korhonen, Ilkka Paananen / Rautavaara - Songs
Used drive : HL-DT-STDVDRAM GU70N Adapter: 0 ID: 0
Read mode : Secure
Utilize accurate stream : Yes
Defeat audio cache : Yes
Make use of C2 pointers : No
Read offset correction : 48
Overread into Lead-In and Lead-Out : No
Fill up missing offset samples with silence : Yes
Delete leading and trailing silent blocks : No
Null samples used in CRC calculations : Yes
Used interface : Native Win32 interface for Win NT & 2000
Used output format : User Defined Encoder
Selected bitrate : 128 kBit/s
Quality : High
Add ID3 tag : No
Command line compressor : C:\Program Files (x86)\Exact Audio Copy\Flac\flac.exe
Additional command line options : -V -8 -T "Date=%year%" -T "Genre=%genre%" %source%
TOC of the extracted CD
Track | Start | Length | Start sector | End sector
---------------------------------------------------------
1 | 0:00.00 | 1:14.10 | 0 | 5559
2 | 1:14.10 | 4:05.07 | 5560 | 23941
3 | 5:19.17 | 2:28.08 | 23942 | 35049
4 | 7:47.25 | 2:37.72 | 35050 | 46896
5 | 10:25.22 | 2:44.30 | 46897 | 59226
6 | 13:09.52 | 2:07.00 | 59227 | 68751
7 | 15:16.52 | 1:52.25 | 68752 | 77176
8 | 17:09.02 | 1:49.58 | 77177 | 85409
9 | 18:58.60 | 1:47.07 | 85410 | 93441
10 | 20:45.67 | 2:36.53 | 93442 | 105194
11 | 23:22.45 | 1:49.10 | 105195 | 113379
12 | 25:11.55 | 0:58.57 | 113380 | 117786
13 | 26:10.37 | 1:46.73 | 117787 | 125809
14 | 27:57.35 | 1:55.10 | 125810 | 134444
15 | 29:52.45 | 1:17.30 | 134445 | 140249
16 | 31:10.00 | 2:39.67 | 140250 | 152241
17 | 33:49.67 | 1:47.50 | 152242 | 160316
18 | 35:37.42 | 2:32.48 | 160317 | 171764
19 | 38:10.15 | 2:23.35 | 171765 | 182524
20 | 40:33.50 | 2:47.05 | 182525 | 195054
21 | 43:20.55 | 4:25.67 | 195055 | 214996
22 | 47:46.47 | 2:30.00 | 214997 | 226246
23 | 50:16.47 | 3:29.45 | 226247 | 241966
24 | 53:46.17 | 6:29.25 | 241967 | 271166
25 | 60:15.42 | 3:45.48 | 271167 | 288089
26 | 64:01.15 | 4:07.67 | 288090 | 306681
27 | 68:09.07 | 2:40.55 | 306682 | 318736
28 | 70:49.62 | 3:26.03 | 318737 | 334189
29 | 74:15.65 | 1:51.57 | 334190 | 342571
30 | 76:07.47 | 3:25.35 | 342572 | 357981
Range status and errors
Selected range
Filename C:\temp\BIS-CD-1141 - Rautavaara - Songs - Korhonen, Paananen\Rautavaara - Songs.wav
Peak level 100.0 %
Extraction speed 2.3 X
Range quality 99.9 %
Test CRC 1FFB83FA
Copy CRC 1FFB83FA
Copy OK
No errors occurred
AccurateRip summary
Track 1 not present in database
Track 2 not present in database
Track 3 not present in database
Track 4 not present in database
Track 5 not present in database
Track 6 not present in database
Track 7 not present in database
Track 8 not present in database
Track 9 not present in database
Track 10 not present in database
Track 11 not present in database
Track 12 not present in database
Track 13 not present in database
Track 14 not present in database
Track 15 not present in database
Track 16 not present in database
Track 17 not present in database
Track 18 not present in database
Track 19 not present in database
Track 20 not present in database
Track 21 not present in database
Track 22 not present in database
Track 23 not present in database
Track 24 not present in database
Track 25 not present in database
Track 26 not present in database
Track 27 not present in database
Track 28 not present in database
Track 29 not present in database
Track 30 not present in database
None of the tracks are present in the AccurateRip database
End of status report
==== Log checksum A39BD75CA549427C6BC43A326E3415CF3FF66392BDFC36C13AC74CB35B3E4D62 ====



Показать сообщения:    

Текущее время: 10-Дек 13:53

Часовой пояс: UTC + 3


Вы не можете начинать темы
Вы не можете отвечать на сообщения
Вы не можете редактировать свои сообщения
Вы не можете удалять свои сообщения
Вы не можете голосовать в опросах
Вы не можете прикреплять файлы к сообщениям
Вы не можете скачивать файлы