[TR24][SM][OF] Shostakovich/Дмитрий Шостакович - Symphony No 7 ‘Leningrad’ - Valery Gergiev (Гергиев) & Mariinsky Orchestra - 2012 (Classical)


Статистика раздачи [Обновить пиров]
Размер:  1.36 GB   |    Зарегистрирован:  8 месяцев 21 день   |    Скачан:  1 раз

Полного источника не было: 27 дней

 
   
 
 
 

[Цитировать]

·
Dmitry Shostakovich (1906–1975)Жанр: Symphony
Носитель: Official Digital Download
Год издания диска: 2012
Издатель(лейбл): Mariinsky Label
Номер по каталогу: MAR 0533
Продолжительность: 01:22:19
Наличие сканов в содержимом раздачи: booklet, inlay, sleeve
Контейнер: FLAC (*.flac)
Разрядность: 24/96
Количество каналов: 2.0
Формат: tracks
Источник: qobuz.com
Pелизер: WEB (thanks to the original customer)
Valery Gergiev
Mariinsky Orchestra

Треклист

Symphony No. 7 in C major Op. 60 'Leningrad'
01 Allegretto 28:44
02 Moderato [Poco Allegretto] 15:30
03 Adagio 19:02
04 Allegro Non Troppo 19:03

Dynamic Range Meter

foobar2000 1.2.6 / Dynamic Range Meter 1.1.1
log date: 2015-04-20 22:12:26
--------------------------------------------------------------------------------
Analyzed: Mariinsky Orchestra, Valery Gergiev / Shostakovich: Symphony No. 7 in C major, Op. 60 'Leningrad'
--------------------------------------------------------------------------------
DR Peak RMS Duration Track
--------------------------------------------------------------------------------
DR15 0.00 dB -21.38 dB 28:45 01-Symphony No. 7 in C major, Op. 60 'Leningrad' - I. Allegretto
DR19 -2.09 dB -28.60 dB 15:30 02-Symphony No. 7 in C major, Op. 60 'Leningrad' - II. Moderato (poco allegretto)
DR16 -0.95 dB -25.28 dB 19:03 03-Symphony No. 7 in C major, Op. 60 'Leningrad' - III. Adagio
DR15 0.00 dB -20.50 dB 19:03 04-Symphony No. 7 in C major, Op. 60 'Leningrad' - IV. Allegro non troppo
--------------------------------------------------------------------------------
Number of tracks: 4
Official DR value: DR16
Samplerate: 96000 Hz
Channels: 2
Bits per sample: 24
Bitrate: 2469 kbps
Codec: FLAC
================================================================================
[teatrix.ru].t20982.torrent 
Торрент: Зарегистрирован [ 2016-03-20 00:56 ] · DD5123047336F6FEE74FAC0561442E944AB8FDC9

Скачать .torrent

Скачать

15 KB

Статус: проверено
Скачан: 1 раз
Размер: 1.36 GB
terms.php



Быстрый ответ

Имя:

      
Для отправки сообщений необходимо включить JavaScript
Показать сообщения:    

Текущее время: 10-Дек 10:01

Часовой пояс: UTC + 3


Вы можете начинать темы
Вы можете отвечать на сообщения
Вы не можете редактировать свои сообщения
Вы не можете удалять свои сообщения
Вы не можете голосовать в опросах
Вы не можете прикреплять файлы к сообщениям
Вы можете скачивать файлы