[TR24][OF] Maria Callas - Callas at La Scala [1955] (La sonnambula, Medea, La vestale) - Maria Callas, Orchestra del Teatro alla Scala di Milano, Tullio Serafin - 2014 (Classical, Opera)


Статистика раздачи [Обновить пиров]
Размер:  415 MB   |    Зарегистрирован:  8 месяцев 16 дней   |    Скачан:  0 раз

Полного источника не было: 2 месяца 9 дней

 
   
 
 
 

[Цитировать]

Maria Callas at La Scala
Orchestra del Teatro alla Scala di Milano · Tullio Serafin
- Год издания: 2014
Жанр: Classical, Opera
Издатель (лейбл): Warner Classics
Продолжительность: 00:41:51
Наличие сканов: Covers, Digital Booklet
- -
Vincenzo Bellini (1801-1835)
La sonnambula
01. Act 1: "Compagne, temiri amici ....Come per me sereno" (Amina) (5:48)
02. Act 3: "Oh, se una volta sola ....Ah! non credea mirarti" (Amina) (14:06)
Luigi Cherubini (1760-1842)
Medea
03. Act 1: "Dei tuoi figli la madre from Medea" (Medea) (4:49)
Gaspare Spontini (1774-1851)
La vestale
04. Act 2: "Tu che invoco con orrore" (Julia) (10:52)
05. Act 2: "O nome tutelar" (Julia) (2:32)
06. Act 3: "Caro oggetto" (Julia) (3:45)

-
Maria Callas, soprano
Orchestra del Teatro alla Scala di Milano
Tullio Serafin, conductor
Recorded: 9–12.VI.1955, Teatro alla Scala, Milan
-Контейнер: FLAC (*.flac)
Тип рипа: tracks
Разрядность: 24bit / 96kHz
Количество каналов: 2.0
-О релизе
Callas essential
Callas first sang at Milan’s legendary La Scala for the opening of the 1951–1952 season (in Verdi’s I vespri siciliani) and she became closely identified with the theatre, notably in productions directed by Luchino Visconti and his protégé Franco Zeffirelli. Spontini’s La vestale was staged for her there in 1954, Bellini’s La sonnambula in 1955, and her final La Scala performances came in 1962 with Cherubini’s Medea.
„This wonderful record gives us … Callas at her most spell-binding and enthralling,“ wrote Gramophone. „Callas at La Scala … shows the diva at her most exciting and most beautiful.“
Recorded from 9–12. June 1955, Teatro alla Scala, Milan
Produced by Walter Jellinek
Engineered by Robert Beckett
Recorded in cooperation with E.A. Teatro alla Scala, Milan
Newly remastered from the original tapes at Abbey Road Studios

ОтчётыДинамический диапазон

foobar2000 1.2.2 / Dynamic Range Meter 1.1.1
log date: 2015-04-21 09:50:56
--------------------------------------------------------------------------------
Analyzed: Maria Callas, Orchestra del Teatro alla Scala di Milano, Tullio Serafin / Callas at La Scala (1955)
--------------------------------------------------------------------------------
DR Peak RMS Duration Track
--------------------------------------------------------------------------------
DR9 -1.28 dB -15.68 dB 5:48 ?-La sonnambula, Act 1: "Compagne, temiri amici ....Come per me sereno" (Amina)
DR10 -1.02 dB -15.78 dB 14:06 ?-La sonnambula, Act 3: "Oh, se una volta sola ....Ah! non credea mirarti" (Amina)
DR8 -0.71 dB -12.66 dB 4:49 ?-Medea, Act 1: "Dei tuoi figli la madre from Medea" (Medea)
DR9 -0.20 dB -13.07 dB 10:52 ?-La vestale, Act 2: "Tu che invoco con orrore" (Julia)
DR10 -1.37 dB -16.84 dB 2:32 ?-La vestale, Act 2: "O nome tutelar" (Julia)
DR10 -1.44 dB -15.96 dB 3:45 ?-La vestale, Act 3: "Caro oggetto" (Julia)
--------------------------------------------------------------------------------
Number of tracks: 6
Official DR value: DR9
Samplerate: 96000 Hz
Channels: 2
Bits per sample: 24
Bitrate: 1353 kbps
Codec: FLAC
================================================================================

Скриншот спектра частот

Доп. информация

При скачивании, если необходимо, переименуйте папку, в которой будет находиться альбомБольшая просьба к скачавшим поддерживать раздачу! Помогайте другим, ведь вам тоже может понадобиться помощь!Не забываем говорить "Спасибо"!Комментарии приветствуются!
Maria Callas Hi-Res
[teatrix.ru].t20983.torrent 
Торрент: Зарегистрирован [ 2016-03-20 00:56 ] · 0E6228DAA6571474FCFDC8D03CC4D2B18F2C4524

Скачать .torrent

Скачать

18 KB

Статус: проверено
Скачан: 0 раз
Размер: 415 MB
terms.php



Быстрый ответ

Имя:

      
Для отправки сообщений необходимо включить JavaScript
Показать сообщения:    

Текущее время: 05-Дек 17:31

Часовой пояс: UTC + 3


Вы можете начинать темы
Вы можете отвечать на сообщения
Вы не можете редактировать свои сообщения
Вы не можете удалять свои сообщения
Вы не можете голосовать в опросах
Вы не можете прикреплять файлы к сообщениям
Вы можете скачивать файлы