Серебрянная труба / Hõbe-trompet (Артур Ринне / Artur Rinne) [1969, музыкальный, DVDRip]


Статистика раздачи [Обновить пиров]
Размер:  264 MB   |    Зарегистрирован:  8 месяцев 21 день   |    Скачан:  0 раз

Полного источника не было: Никогда

 
   
 
 
 

[Цитировать]

Серебряная труба / Hõbe-trompet
Дата/Год выпуска: 1969
Страна: СССР, Эстония
Жанр: музыкальный
Продолжительность: 00:15:06
Перевод: Не требуется
Режиссер: Артур Ринне / Artur Rinne
Описание: Музыкальный соло-фильм знаменитого эстонского трубача еврейского происхождения Аби Зейдера.
Замечательный музыкант, обладавший удивительным интуитивным чувством возможностей своего музыкального инструмента, несколько послевоенных десятилетий покорял аудиторию виртуозной техникой, выразительной интерпретацией, красочностью поющих звуков. Слушателей неизменно восхищали его чистые и яркие высокие ноты, которые в ту пору были подвластны лишь трубачам с мировым именем.
В фильме "Серебряная труба" Аби Зейдер исполняет музыку Бориса Кырвера, Боба Мерилла, Ханса Хиндпере и других композиторов. Труба Зейдера звучит на лоне природы в обрамлении теплого лета и красивых девушек.
Сэмпл: http://sendfile.su/1110190
качество: DVDRip
формат: AVI
Видео: XVID; 688х528; 4:3; 2 245 Kbps; 25.000 fps
Аудио: AC-3; 192 Kbps; 48.0 KHz; 2 channels
Спасибо Johnnyleo

MediaInfo

General
Format : AVI
Format/Info : Audio Video Interleave
File size : 264 MiB
Duration : 15mn 6s
Overall bit rate : 2 447 Kbps
Writing library : VirtualDub build 32842/release
Video #0
ID : 0
Format : MPEG-4 Visual
Format profile : Advanced Simple@L5
Format settings, BVOP : 2
Format settings, QPel : No
Format settings, GMC : No warppoints
Format settings, Matrix : Default (MPEG)
Muxing mode : Packed bitstream
Codec ID : XVID
Codec ID/Hint : XviD
Duration : 15mn 6s
Bit rate : 2 245 Kbps
Width : 688 pixels
Height : 528 pixels
Display aspect ratio : 4:3
Frame rate : 25.000 fps
Color space : YUV
Chroma subsampling : 4:2:0
Bit depth : 8 bits
Scan type : Progressive
Compression mode : Lossy
Bits/(Pixel*Frame) : 0.247
Stream size : 243 MiB (92%)
Writing library : XviD 64
Audio #1
ID : 1
Format : AC-3
Format/Info : Audio Coding 3
Mode extension : CM (complete main)
Format settings, Endianness : Big
Codec ID : 2000
Duration : 15mn 6s
Bit rate mode : Constant
Bit rate : 192 Kbps
Channel(s) : 2 channels
Channel positions : Front: L R
Sampling rate : 48.0 KHz
Bit depth : 16 bits
Compression mode : Lossy
Stream size : 20.7 MiB (8%)
Alignment : Aligned on interleaves
Interleave, duration : 40 ms (1.00 video frame)
Interleave, preload duration : 512 ms

Скриншоты



Дополнительная информация


Аби Зейдер (31. VIII 1920 – 12. III 1999)
Аби Зейдер родился 31 августа 1920 года в Валга в простой еврейской семье. Он был третьим сыном. Его детской мечтой была труба старшего брата, к которой поначалу он мог прикасаться только тайно. Собственный инструмент он получил лишь в двадцать один год. Налицо был явный талант, который сам художник углублял с каждым годом. В дальнейшем он учился у таких замечательных музыкантов как Николай Кубли и профессор Юлиус Вакс.

Труба помогла ему пережить все трудности солдатской жизни и вернуться на родину в составе джаз-оркестра эстонского корпуса. После армии он играл в Доме Молодежи в ансамблях сформированных Эмилем Лаансоо (1946–1948), в двух домах культуры (1948–1953), а затем в оркестре Дома Офицеров морского флота. Его талант не остался незамеченным, и его стали приглашать на записи эстрадного оркестра Эстонского радио.

Красивый певучий звук и сверхвысокие ноты, недоступные в то время другим трубачам, сделали Аби Зейдера в 1957-1980 подлинным украшением оркестра Эстонского Радио и Телевидения. Параллельно с работой на радио он играл в ансамбле "Stuudio 8", созданном Уно Найсоо. Свой постоянно расширяющийся репертуар солиста он представлял на почти всех публичных концертах. Мастерство Аби Зейдера, особенно его чистый верхний регистр, ценили также дирижеры симфонического оркестра. Его приглашали на исполнение особо ответственных партий трубы (например, си-минорная месса Баха). За годы работы на радио он записал более двухсот произведений, от лирических баллад, классики и народных произведений, до требующих точной техники произведений для трубы. В составе разных ансамблей и оркестров он побывал с концертными турне в Финляндии, Германии, Бельгии, Канаде, Шри-Ланка, в России и других республиках СССР.
Когда в 1980 году Аби Зейдер вышел на пенсию с поста солиста оркестра и концертмейстера группы трубачей, казалось, что теперь будет время посвятить себя любимым занятиям: охоте и рыбной ловле, занятиям в сельском домике у моря. Но уже через год Аби Зейдер приступил к выполнению своего давнего плана - записи сольной пластинки. Первая сольная пластинка появилась в 1984 году. Одновременно он успешно продолжал сольные выступления на концертах. Еще в возрасте семидесяти пяти лет, он был в хорошей форме трубача солиста, что подтверждет CD „Abi Zeider & Tallinna Poistekoor" (1995).
Его помнят как уникального первопроходца и ищущего совершенства музыканта, требовательность которого распространялась в первую очередь на себя самого.
По материалам сайта EJA
[teatrix.ru].t20984.torrent 
Торрент: Зарегистрирован [ 2016-03-20 00:56 ] · AA2A8DF1F8031362C8E8DD24090A2DD1E1271C63

Скачать .torrent

Скачать

11 KB

Статус: проверено
Скачан: 0 раз
Размер: 264 MB
terms.php



Быстрый ответ

Имя:

      
Для отправки сообщений необходимо включить JavaScript
Показать сообщения:    

Текущее время: 10-Дек 21:38

Часовой пояс: UTC + 3


Вы можете начинать темы
Вы можете отвечать на сообщения
Вы не можете редактировать свои сообщения
Вы не можете удалять свои сообщения
Вы не можете голосовать в опросах
Вы не можете прикреплять файлы к сообщениям
Вы можете скачивать файлы