[TR24][OF] Maria Callas - Callas Sings Rossini & Donizetti Arias [1963-64] (Maria Callas, Orchestre de la Société des Concerts du Conservatoire, Nicola Rescigno) - 2014 (Classical, Opera)


Статистика раздачи [Обновить пиров]
Размер:  809 MB   |    Зарегистрирован:  8 месяцев 19 дней   |    Скачан:  0 раз

Полного источника не было: Никогда

 
   
 
 
 

[Цитировать]

Maria Callas Sings Rossini & Donizetti Arias
Orchestre de la Société des Concerts du Conservatoire · Nicola Rescigno
- Год издания: 2014
Жанр: Classical, Opera
Издатель (лейбл): Warner Classics
Продолжительность: 00:39:51
Наличие сканов: Covers, Digital Booklet
- -
Gioachino Rossini (1792-1868)
La Cenerentola
01. Act 2: "Nacqui all'affanno e al pianto.....Non più mesta" (Angelina) (6:20)
Guglielmo Tell
02. Act 2: "S'allontanano alfin..." (Matilde) (8:39)
Gaetano Donizetti (1797-1848)
La figlia del reggimento
03. Act 1: "Convien partir" (Maria) (4:08)
Gioachino Rossini
Sémiramide
04. Act 1: "Bel raggio lusinghier" (Semiramide) (8:42)
Gaetano Donizetti
Lucrezia Borgia
05. Act 1: "Tranquillo di posa...Com'è bello" (Lucrezia Borgia) (8:24)
L'elisir d'amore
06. Act 2: "Prendi, per me sei libero" (Adina) (3:39)

-
Maria Callas, soprano
Orchestre de la Société des Concerts du Conservatoire
Nicola Rescigno, conductor
Recorded: 4, 9, 23, 30.XII.1963, 6.I, 21.II & 13, 24.IV.1964, Salle Wagram, Paris
-Контейнер: FLAC (*.flac)
Тип рипа: tracks
Разрядность: 24bit / 96kHz
Количество каналов: 2.0
-О релизе
Colorful
Although the bel canto repertoire was crucial to Callas’s career, and she played a significant part in reviving its fortunes, she never sang any of the roles – from both serious and comic operas – that are represented in this recital. Gramophone said: ‘It is extraordinary how the whole quality and colour of Callas’ voice changes as she moves from one character to another – for example, from the grand manner appropriate to the Babylonian queen [Semiramide] to the passion of the spoilt Italian duchess [Lucrezia Borgia] and thence to the simple charm of the countrywoman Adina [L’elisir d’amore].’
Maria Callas, soprano
Paris Conservatoire Orchestra
Nicola Rescigno, conductor
Digitally remastered

ОтчётыДинамический диапазон

foobar2000 1.2.2 / Dynamic Range Meter 1.1.1
log date: 2015-04-21 20:46:32
--------------------------------------------------------------------------------
Analyzed: Maria Callas, Orchestre de la Société des Concerts du Conservatoire, Nicola Rescigno / Callas sings Rossini & Donizetti Arias (1963-64)
--------------------------------------------------------------------------------
DR Peak RMS Duration Track
--------------------------------------------------------------------------------
DR12 -1.02 dB -18.25 dB 6:20 ?-La Cenerentola: Act 2: "Nacqui all'affanno e al pianto.....Non più mesta" (Angelina)
DR10 -2.19 dB -17.59 dB 8:39 ?-Guglielmo Tell: Act 2: "S'allontanano alfin..." (Matilde)
DR10 -4.00 dB -18.66 dB 4:08 ?-La figlia del reggimento: Act 1: "Convien partir" (Maria)
DR10 -1.67 dB -17.19 dB 8:42 ?-Sémiramide: Act 1: "Bel raggio lusinghier" (Semiramide)
DR13 -0.01 dB -17.71 dB 8:24 ?-Lucrezia Borgia: Act 1: "Tranquillo di posa...Com'è bello" (Lucrezia Borgia)
DR11 -1.45 dB -18.76 dB 3:39 ?-L'elisir d'amore: Act 2: "Prendi, per me sei libero" (Adina)
--------------------------------------------------------------------------------
Number of tracks: 6
Official DR value: DR11
Samplerate: 96000 Hz
Channels: 2
Bits per sample: 24
Bitrate: 2775 kbps
Codec: FLAC
================================================================================

Скриншот спектра частот

Доп. информация

При скачивании, если необходимо, переименуйте папку, в которой будет находиться альбомБольшая просьба к скачавшим поддерживать раздачу! Помогайте другим, ведь вам тоже может понадобиться помощь!Не забываем говорить "Спасибо"!Комментарии приветствуются!
Maria Callas Hi-Res
[teatrix.ru].t20988.torrent 
Торрент: Зарегистрирован [ 2016-03-20 00:56 ] · 75C8CB722AE5143FA69B565FAD46B087672659A6

Скачать .torrent

Скачать

17 KB

Статус: проверено
Скачан: 0 раз
Размер: 809 MB
terms.php



Быстрый ответ

Имя:

      
Для отправки сообщений необходимо включить JavaScript
Показать сообщения:    

Текущее время: 08-Дек 19:11

Часовой пояс: UTC + 3


Вы можете начинать темы
Вы можете отвечать на сообщения
Вы не можете редактировать свои сообщения
Вы не можете удалять свои сообщения
Вы не можете голосовать в опросах
Вы не можете прикреплять файлы к сообщениям
Вы можете скачивать файлы