(Classical) [LP] [24/48] Г. Малер/G. Mahler - Symphony № 2 in C Minor (The London Symphony Orchestra - Conductor Georg Sotli) - Из Сокровищницы Мирового Исполнительского Искусства,1980, FLAC (tracks+.cue)


Статистика раздачи [Обновить пиров]
Размер:  801 MB   |    Зарегистрирован:  8 месяцев 14 дней   |    Скачан:  0 раз

Полного источника не было: Никогда

 
   
 
 
 

[Цитировать]

Г. Малер/G. Mahler - Symphony № 2 in C Minor (The London Symphony Orchestra - Conductor Georg Sotli) - Из Сокровищницы Мирового Исполнительского Искусства
Жанр: Classical
Носитель: LP
Год выпуска: 1980
Лейбл: Melodya (MOZG)
Страна-производитель: USSR
Аудио кодек: FLAC
Тип рипа: tracks+.cue
Формат записи: 32/192
Формат раздачи: 24/48
Продолжительность: 81 min
Треклист:
01. Allegro maestoso
02. Andante moderato
03. I'm ruhig flissender Bewegung
01. <>.Sehr feierlich, aber schlicht
02. Im tempo des Scherzos
03. Im tempo des Scherzos (ending)
Хезер Харпер, сопрано (5)
Хелен Уоттс, меццо-сопрано (4,5)
Хор Лондонского симфонического оркестра (5)
Лондонский симфонический оркестр
Источник оцифровки: автором раздачи
Код класса состояния винила: NM
Устройство воспроизведения: Электроника ЭП 017С
Головка звукоснимателя: Audio-Technica AT95
Предварительный усилитель: Бриг-001
АЦП: VIA HD audio device
Программа-оцифровщик: Izotope RX 4 Advanced
Обработка: Izotope RX 4 Advanced

Спектр+АЧХ+Уровень записи


DR=14

foobar2000 1.1.10 / Dynamic Range Meter 1.1.1
log date: 2014-11-08 12:46:06
--------------------------------------------------------------------------------
Analyzed: Georg Solti / Conductors
--------------------------------------------------------------------------------
DR Peak RMS Duration Track
--------------------------------------------------------------------------------
DR13 -1.77 dB -21.55 dB 20:59 ?-G.Mahler - Allegro maestoso
DR15 -2.12 dB -24.10 dB 10:32 ?-G.Mahler - Andante moderato
DR14 -1.85 dB -24.68 dB 10:20 ?-G.Mahler - I'm ruhig flissender Bewegung
--------------------------------------------------------------------------------
Number of tracks: 3
Official DR value: DR14
Samplerate: 48000 Hz
Channels: 2
Bits per sample: 24
Bitrate: 1308 kbps
Codec: FLAC
================================================================================
foobar2000 1.1.10 / Dynamic Range Meter 1.1.1
log date: 2015-04-22 14:02:56
--------------------------------------------------------------------------------
Analyzed: G.Mahler / Symphony № 2 - Disc II
--------------------------------------------------------------------------------
DR Peak RMS Duration Track
--------------------------------------------------------------------------------
DR17 -2.96 dB -26.13 dB 11:16 ?-<>.Sehr feierlich, aber schlicht
DR12 -2.19 dB -17.41 dB 7:33 ?-Im tempo des Scherzos
DR13 -1.43 dB -20.58 dB 20:03 ?-Im tempo des Scherzos (ending)
--------------------------------------------------------------------------------
Number of tracks: 3
Official DR value: DR14
Samplerate: 48000 Hz
Channels: 2
Bits per sample: 24
Bitrate: 1367 kbps
Codec: FLAC
================================================================================
[teatrix.ru].t20994.torrent 
Торрент: Зарегистрирован [ 2016-03-20 00:56 ] · EAF4F4BF00F33B84A6B03E98017F7794B0C8491F

Скачать .torrent

Скачать

17 KB

Статус: проверено
Скачан: 0 раз
Размер: 801 MB
terms.php



Быстрый ответ

Имя:

      
Для отправки сообщений необходимо включить JavaScript
Показать сообщения:    

Текущее время: 03-Дек 22:45

Часовой пояс: UTC + 3


Вы можете начинать темы
Вы можете отвечать на сообщения
Вы не можете редактировать свои сообщения
Вы не можете удалять свои сообщения
Вы не можете голосовать в опросах
Вы не можете прикреплять файлы к сообщениям
Вы можете скачивать файлы