[TR24][OF] Giacomo Puccini - Tosca [1964-65] (Maria Callas, Carlo Bergonzi, Tito Gobbi, Giorgio Tadeo, Leonardo Monreale, Renato Ercolani, Ugo Trama etc., Paris Conservatoire Orchestra, Georges Prêtre/Pretre) - 2014 (Classical, Opera)


Статистика раздачи [Обновить пиров]
Размер:  2.26 GB   |    Зарегистрирован:  8 месяцев 15 дней   |    Скачан:  1 раз

Полного источника не было: 14 дней

 
   
 
 
 

[Цитировать]

MARIA CALLAS
TOSCA
by Giacomo Puccini
- Год издания: 2014
Жанр: Classical, Opera
Издатель (лейбл): Warner Classics
Продолжительность: 01:52:23
Наличие сканов: Covers, Digital Booklet
-Контейнер: FLAC (*.flac)
Тип рипа: tracks
Разрядность: 24bit / 96kHz
Количество каналов: 2.0
- -Giacomo Puccini (1858–1924)
Tosca (Opera in three acts)
Libretto: Luigi Illica & Giuseppe Giacosa
-Maria Callas, soprano (Tosca)
Carlo Bergonzi, tenor (Cavaradossi)
Tito Gobbi, baritone (Scarpia)
Giorgio Tadeo, bass (Il Sagristano)
Leonardo Monreale, bass (Angelotti)
Renato Ercolani, tenor (Spoletta)
Ugo Trama, bass (Sciarrone)
David Sellar, boy soprano (Un pastore)
Leonardo Monreale, bass (Un carceriere)
Choeurs du Théâtre National de l’Opéra
Chorus master: Jean Laforge
Orchestre de la Société des Concerts du Conservatoire
Georges Prêtre, conductor
Recorded: 3, 4, 7–12, 14.XII.1964 & 19.I.1965 Salle Wagram, Paris
-ТреклистAct 1
01."Ah! Finalmente!" (Angelotti, Sacristan, Cavaradossi) (5:17)
02. "Dammi i colori...Recondita armonia" (Cavaradossi, Sagrestano) (4:19)
03. "Gente là dentro!" (Cavaradossi, Angelotti, Tosca) (1:07)
04. "Mario! Mario! Mario!" (Tosca, Cavaradossi) (7:16)
05. "Ah, quegli occhi! ... Quale occhi al mondo può di paro" (Tosca, Cavaradossi) (5:43)
06. "E buona la mia Tosca" (Cavaradossi, Angelotti, Sagrestano, Chorus) (4:56)
07. "Un tal baccano in chiesa!" (Scarpia, Sacristan, Spoletta) (3:52)
08. "Tutto è chiaro ... Tosca? Che non mi veda ... Mario! Mario!" (3:02)
09. "Ed io venivo a lui tutta dogliosa" (Tosca, Scarpia) (3:43)
10. "Tre sbirri" (Scarpia, Spoletta, Chorus) (4:10)
Act 2
11. "Tosca è un buon falco" (Scarpia, Sciarrone) (3:16)
12. "Ha più forte" (Scarpia, Sciarrone, Spoletta) (2:22)
13. "Meno male!" (Scarpia, Spoletta, Cavaradossi) (3:11)
14. "Dov'è dunque Angelotti?" (Scarpia, Cavaradossi, Spoletta, Tosca) (2:27)
15. "Ed or fra noi parliam da buoni amici" (Scarpia, Tosca, Sciarrone, Cavaradossi) (3:57)
16. "Orsù, Tosca, parlate" (Scarpia, Tosca, Cavaradossi) (3:12)
17. "Nel pozzo...Del giardino" (Scarpia, Sciarrone, Tosca, Cavaradossi) (5:42)
18. "Se la giurata" (Scarpia, Tosca) (3:27)
19. "Vissi d'arte" (Tosca) (3:00)
20. "Vedi, ecco, vedi" (Tosca, Scarpia, Spoletta) (3:42)
21. "E qual via scegliete?" (Scarpia, Tosca) (6:43)
Act 3
22. "Io de' sospiri" (Shepherd's voice) (5:48)
23. "Mario Cavaradossi?" (Jailer, Cavaradossi) (4:30)
24. "E lucevan le stelle" (Cavaradossi) (3:02)
25. "Ah! Franchigia a Floria Tosca" (Cavaradossi, Tosca) (2:43)
26. "O dolci mani" (Cavaradossi, Tosca) (5:14)
27. "E non giungono" (Tosca, Cavaradossi, Jailer) (2:42)
28. "Com'è lunga l'attesa!" (Tosca) (2:31)
29. "Presto! su, Mario! Andiamo! Andiamo!, Su!" (Tosca, Voices, Sciarrone, Spoletta) (1:29)

О релизе


Tosca was the role in which – in 1965, the year this recording was made – Callas gave her last complete performances at the Royal Opera House, Covent Garden, the Metropolitan Opera and the Paris Opéra. This was her final complete recording of an opera, and, 12 years after her first version of Tosca, it reunited her with the Scarpia of Tito Gobbi. They were joined by Carlo Bergonzi as Cavaradossi. Gramophone praised 'a thrilling and very complete interpretation, with scene after scene, bar after bar, brought to life by sheer intelligence and dramatic insight.'

ОтчётыДинамический диапазон

foobar2000 1.2.2 / Dynamic Range Meter 1.1.1
log date: 2015-04-22 10:35:19
--------------------------------------------------------------------------------
Analyzed: Carlo Bergonzi, Giorgio Tadeo, Orchestre de la Société des Concerts du Conservatoire, Georges Prêtre / Giacomo Puccini: Tosca (1964-65) (1)
Carlo Bergonzi, Leonardo Monreale, Giorgio Tadeo, Choeurs de l'Opéra National de Paris, Orchestre de la Société des Concerts du Conservatoire, Georges Prêtre / Giacomo Puccini: Tosca (1964-65) (2)
Carlo Bergonzi, Leonardo Monreale, Maria Callas, Orchestre de la Société des Concerts du Conservatoire, Georges Prêtre / Giacomo Puccini: Tosca (1964-65) (3)
Carlo Bergonzi, Maria Callas, Orchestre de la Société des Concerts du Conservatoire, Georges Prêtre / Giacomo Puccini: Tosca (1964-65) (4-5)
Carlo Bergonzi, Orchestre de la Société des Concerts du Conservatoire, Georges Prêtre / Giacomo Puccini: Tosca (1964-65) (6)
David Sellar, Orchestre de la Société des Concerts du Conservatoire, Georges Prêtre / Giacomo Puccini: Tosca (1964-65) (7)
Leonardo Monreale, Carlo Bergonzi, Orchestre de la Société des Concerts du Conservatoire, Georges Prêtre / Giacomo Puccini: Tosca (1964-65) (8)
Leonardo Monreale, Giorgio Tadeo, Carlo Bergonzi, Orchestre de la Société des Concerts du Conservatoire, Georges Prêtre / Giacomo Puccini: Tosca (1964-65) (9)
Maria Callas, Carlo Bergonzi, Leonardo Monreale, Orchestre de la Société des Concerts du Conservatoire, Georges Prêtre / Giacomo Puccini: Tosca (1964-65) (10)
Maria Callas, Carlo Bergonzi, Orchestre de la Société des Concerts du Conservatoire, Georges Prêtre / Giacomo Puccini: Tosca (1964-65) (11-12)
Maria Callas, Orchestre de la Société des Concerts du Conservatoire, Georges Prêtre / Giacomo Puccini: Tosca (1964-65) (13-14)
Maria Callas, Tito Gobbi, Orchestre de la Société des Concerts du Conservatoire, Georges Prêtre / Giacomo Puccini: Tosca (1964-65) (15)
Maria Callas, Tito Gobbi, Renato Ercolani, Orchestre de la Société des Concerts du Conservatoire, Georges Prêtre / Giacomo Puccini: Tosca (1964-65) (16)
Maria Callas, Ugo Trama, Renato Ercolani, Choeurs de l'Opéra National de Paris, Orchestre de la Société des Concerts du Conservatoire, Georges Prêtre / Giacomo Puccini: Tosca (1964-65) (17)
Tito Gobbi, Carlo Bergonzi, Maria Callas, Giorgio Tadeo, Orchestre de la Société des Concerts du Conservatoire, Georges Prêtre / Giacomo Puccini: Tosca (1964-65) (18)
Tito Gobbi, Carlo Bergonzi, Renato Ercolani, Maria Callas, Orchestre de la Société des Concerts du Conservatoire, Georges Prêtre / Giacomo Puccini: Tosca (1964-65) (19)
Tito Gobbi, Giorgio Tadeo, Renato Ercolani, Orchestre de la Société des Concerts du Conservatoire, Georges Prêtre / Giacomo Puccini: Tosca (1964-65) (20)
Tito Gobbi, Maria Callas, Carlo Bergonzi, Renato Ercolani, Leonardo Monreale, Giorgio Tadeo, Ugo Trama, David Sellar, Choeurs de l'Opéra National de Paris, Orchestre de la Société des Concerts du Conservatoire, Georges Prêtre / Giacomo Puccini: Tosca (1964-65) (21)
Tito Gobbi, Maria Callas, Giorgio Tadeo, Orchestre de la Société des Concerts du Conservatoire, Georges Prêtre / Giacomo Puccini: Tosca (1964-65) (22)
Tito Gobbi, Maria Callas, Orchestre de la Société des Concerts du Conservatoire, Georges Prêtre / Giacomo Puccini: Tosca (1964-65) (23-24)
Tito Gobbi, Maria Callas, Ugo Trama, Carlo Bergonzi, Orchestre de la Société des Concerts du Conservatoire, Georges Prêtre / Giacomo Puccini: Tosca (1964-65) (25)
Tito Gobbi, Renato Ercolani, Carlo Bergonzi, Orchestre de la Société des Concerts du Conservatoire, Georges Prêtre / Giacomo Puccini: Tosca (1964-65) (26)
Tito Gobbi, Renato Ercolani, Georges Prête, Orchestre de la Société des Concerts du Conservatoire / Giacomo Puccini: Tosca (1964-65) (27)
Tito Gobbi, Ugo Trama, Orchestre de la Société des Concerts du Conservatoire, Georges Prêtre / Giacomo Puccini: Tosca (1964-65) (28)
Tito Gobbi, Ugo Trama, Renato Ercolani, Orchestre de la Société des Concerts du Conservatoire, Georges Prêtre / Giacomo Puccini: Tosca (1964-65) (29)
--------------------------------------------------------------------------------
DR Peak RMS Duration Track
--------------------------------------------------------------------------------
DR13 -1.44 dB -20.41 dB 4:19 ?-Act 1: "Dammi i colori...Recondita armonia" (Cavaradossi, Sagrestano)
DR12 -0.23 dB -16.94 dB 4:56 ?-Act 1: "E buona la mia Tosca" (Cavaradossi, Angelotti, Sagrestano, Chorus)
DR12 -0.54 dB -18.83 dB 1:07 ?-Act 1: "Gente là dentro!" (Cavaradossi, Angelotti, Tosca)
DR11 -0.61 dB -15.64 dB 2:43 ?-Act 3: "Ah! Franchigia a Floria Tosca" (Cavaradossi, Tosca)
DR11 -1.44 dB -19.14 dB 5:14 ?-Act 3: "O dolci mani" (Cavaradossi, Tosca)
DR11 -2.21 dB -19.58 dB 3:02 ?-Act 3: "E lucevan le stelle" (Cavaradossi)
DR14 -7.90 dB -30.93 dB 5:48 ?-Act 3: "Io de' sospiri" (Shepherd's voice)
DR13 -3.61 dB -22.48 dB 4:30 ?-Act 3: "Mario Cavaradossi?" (Jailer, Cavaradossi)
DR14 -0.20 dB -20.04 dB 5:17 ?-Act 1: "Ah! Finalmente!" (Angelotti, Sacristan, Cavaradossi)
DR12 -0.44 dB -19.80 dB 2:42 ?-Act 3: "E non giungono" (Tosca, Cavaradossi, Jailer)
DR12 -1.63 dB -19.66 dB 7:16 ?-Act 1: "Mario! Mario! Mario!" (Tosca, Cavaradossi)
DR12 -1.61 dB -19.05 dB 5:43 ?-Act 1: "Ah, quegli occhi! ... Quale occhi al mondo può di paro" (Tosca, Cavaradossi)
DR10 -2.16 dB -17.27 dB 3:00 ?-Act 2: "Vissi d'arte" (Tosca)
DR11 -1.70 dB -17.60 dB 2:31 ?-Act 3: "Com'è lunga l'attesa!" (Tosca)
DR10 -0.28 dB -15.92 dB 3:43 ?-Act 1: "Ed io venivo a lui tutta dogliosa" (Tosca, Scarpia)
DR13 -1.11 dB -20.13 dB 3:42 ?-Act 2: "Vedi, ecco, vedi" (Tosca, Scarpia, Spoletta)
DR10 -0.24 dB -12.99 dB 1:29 ?-Act 3: "Presto! su, Mario! Andiamo! Andiamo!, Su!" (Tosca, Voices, Sciarrone, Spoletta)
DR12 -0.21 dB -17.35 dB 5:42 ?-Act 2: "Nel pozzo...Del giardino" (Scarpia, Sciarrone, Tosca, Cavaradossi)
DR13 -0.27 dB -20.07 dB 2:27 ?-Act 2: "Dov'è dunque Angelotti?" (Scarpia, Cavaradossi, Spoletta, Tosca)
DR12 -0.20 dB -18.41 dB 3:52 ?-Act 1: "Un tal baccano in chiesa!" (Scarpia, Sacristan, Spoletta)
DR11 -0.29 dB -15.30 dB 3:12 ?-Act 2: "Orsù, Tosca, parlate" (Scarpia, Tosca, Cavaradossi)
DR14 -1.22 dB -19.23 dB 3:02 ?-Act 1: "Tutto è chiaro ... Tosca? Che non mi veda ... Mario! Mario!"
DR11 -0.31 dB -16.14 dB 3:27 ?-Act 2: "Se la giurata" (Scarpia, Tosca)
DR13 -0.29 dB -20.60 dB 6:43 ?-Act 2: "E qual via scegliete?" (Scarpia, Tosca)
DR12 -0.61 dB -18.77 dB 3:57 ?-Act 2: "Ed or fra noi parliam da buoni amici" (Scarpia, Tosca, Sciarrone, Cavaradossi)
DR14 -0.33 dB -20.27 dB 3:11 ?-Act 2: "Meno male!" (Scarpia, Spoletta, Cavaradossi)
DR10 -0.19 dB -14.34 dB 4:10 ?-Act 1: "Tre sbirri" (Scarpia, Spoletta, Chorus)
DR15 -0.64 dB -23.91 dB 3:16 ?-Act 2: "Tosca è un buon falco" (Scarpia, Sciarrone)
DR13 -0.23 dB -17.36 dB 2:22 ?-Act 2: "Ha più forte" (Scarpia, Sciarrone, Spoletta)
--------------------------------------------------------------------------------
Number of tracks: 29
Official DR value: DR12
Samplerate: 96000 Hz
Channels: 2
Bits per sample: 24
Bitrate: 2898 kbps
Codec: FLAC
================================================================================

Скриншот спектра частот

Доп. информация

При скачивании, если необходимо, переименуйте папку, в которой будет находиться альбомБольшая просьба к скачавшим поддерживать раздачу! Помогайте другим, ведь вам тоже может понадобиться помощь!Не забываем говорить "Спасибо"!Комментарии приветствуются!
Maria Callas Hi-Res
[teatrix.ru].t20995.torrent 
Торрент: Зарегистрирован [ 2016-03-20 00:56 ] · 88BF0EA8668FABDE35F561B9D461BDB533304C59

Скачать .torrent

Скачать

14 KB

Статус: проверено
Скачан: 1 раз
Размер: 2.26 GB
terms.php



Быстрый ответ

Имя:

      
Для отправки сообщений необходимо включить JavaScript
Показать сообщения:    

Текущее время: 04-Дек 17:15

Часовой пояс: UTC + 3


Вы можете начинать темы
Вы можете отвечать на сообщения
Вы не можете редактировать свои сообщения
Вы не можете удалять свои сообщения
Вы не можете голосовать в опросах
Вы не можете прикреплять файлы к сообщениям
Вы можете скачивать файлы