(Opera, Vocal) Michael Spyres - A Fool for Love (Tenor Arias by Donizetti, Verdi, Rossini, Cilea, Puccini, Massenet, Bizet, Mozart, Чайковский, Стравинский) - 2011, FLAC (tracks), lossless


 

[Цитировать]

Michael Spyres - A Fool for Love (Tenor Arias by Donizetti, Verdi, Rossini, Cilea, Puccini, Massenet, Bizet, Mozart, Чайковский, Стравинский)
Жанр: Opera, Vocal
Страна-производитель диска: США
Год издания: 2011
Издатель (лейбл): Delos
Дата записи: 2011
Аудиокодек: FLAC
Тип рипа: tracks
Битрейт аудио: lossless
Продолжительность: 63:04
Источник: релизер (Guillermo)
Треклист:
1. Gaetano Donizetti - La fille du regiment, Act II: Cavatine: ''Ah! mes amis, quel jour defete … Pour mon ame'' [04:08];
2. Igor Stravinsky - The Rake's Progress, Act I: Recitative: ''Here I stand…'' [02:43];
3. Gioachino Rossini - Il barbiere di Siviglia (The Barber of Seville), Act II: Aria: ''Cessa di piu resistere'' [07:44];
4. Gaetano Donizetti - L'elisir d'amore (The Elixir of Love), Act II: ''Una furtiva lagrima'' [04:34];
5. Wolfgang Amadeus Mozart - Don Giovanni, K. 527, Act II: Aria: ''Il mio tesoro intanto'' [04:25];
6. Georges Bizet - Les pecheurs de perles (The Pearl Fishers), Act I: ''Je crois entendre encore, cache sous les palmiers'' [04:22];
7. Jules Massenet - Werther, Act III: ''Pourquoi me reveiller'' [02:54];
8. Richard Strauss - Der Rosenkavalier, Op. 59, TrV 227, Act I: ''Di rigori armato il seno'' [03:17];
9. Giacomo Puccini - La boheme, Act I: ''Che gelida manina'' [04:41];
10. Giuseppe Verdi - Rigoletto, Act III: ''La donna e mobile'' [02:15];
11. Gaetano Donizetti - Lucia di Lammermoor, Act III: ''Fra poco a me ricovero'' [07:29];
12. Pyotr Il'yich Tchaikovsky - Eugene Onegin, Op. 24, Act II: ''Kuda, kuda, kuda vi udalilis'' [06:16];
13. Francesco Cilea - L'arlesiana, Act II: ''E la solita storia'' [04:22];
14. Franz Lehar - Das Land des Lachelns (The Land of Smiles), Act II: ''Dein ist mein ganzes Herz!'' [03:45].
Исполнители:
Michael Spyres, tenor,
Moscow Chamber Orchestra,
Constantine Orbelian, conductor.
Recorded at Pavel Slobodkin Center for the Arts, Moscow, November 2010.

Лог создания рипа

Exact Audio Copy V1.0 beta 3 from 29. August 2011
EAC extraction logfile from 20. April 2015, 15:54
Artista desconocido / Título desconocido
Used drive : HL-DT-STDVDRAM GH24NSC0 Adapter: 3 ID: 0
Read mode : Secure
Utilize accurate stream : Yes
Defeat audio cache : Yes
Make use of C2 pointers : No
Read offset correction : 6
Overread into Lead-In and Lead-Out : No
Fill up missing offset samples with silence : Yes
Delete leading and trailing silent blocks : No
Null samples used in CRC calculations : Yes
Used interface : Native Win32 interface for Win NT & 2000
Used output format : User Defined Encoder
Selected bitrate : 768 kBit/s
Quality : High
Add ID3 tag : No
Command line compressor : C:\Program Files (x86)\Exact Audio Copy\FLAC\FLAC.EXE
Additional command line options : -8 -V -T "ARTIST=%artist%" -T "TITLE=%title%" -T "ALBUM=%albumtitle%" -T "DATE=%year%" -T "TRACKNUMBER=%tracknr%" -T "GENRE=%genre%" -T "PERFORMER=%albuminterpret%" -T "COMPOSER=%composer%" %haslyrics%--tag-from-file=LYRICS="%lyricsfile%"%haslyrics% -T "ALBUMARTIST=%albumartist%" -T "DISCNUMBER=%cdnumber%" -T "TOTALDISCS=%totalcds%" -T "TOTALTRACKS=%numtracks%" -T "COMMENT=%comment%" %source% -o %dest%
TOC of the extracted CD
Track | Start | Length | Start sector | End sector
---------------------------------------------------------
1 | 0:00.00 | 4:08.72 | 0 | 18671
2 | 4:08.72 | 2:43.50 | 18672 | 30946
3 | 6:52.47 | 7:44.55 | 30947 | 65801
4 | 14:37.27 | 4:34.34 | 65802 | 86385
5 | 19:11.61 | 4:25.35 | 86386 | 106295
6 | 23:37.21 | 4:22.39 | 106296 | 125984
7 | 27:59.60 | 2:54.16 | 125985 | 139050
8 | 30:54.01 | 3:17.60 | 139051 | 153885
9 | 34:11.61 | 4:41.02 | 153886 | 174962
10 | 38:52.63 | 2:15.69 | 174963 | 185156
11 | 41:08.57 | 7:29.45 | 185157 | 218876
12 | 48:38.27 | 6:16.15 | 218877 | 247091
13 | 54:54.42 | 4:22.18 | 247092 | 266759
14 | 59:16.60 | 3:46.63 | 266760 | 283772
Track 1
Filename f:\Users\Guillermo\Desktop\EAC convertidos\01 Pista01.wav
Pre-gap length 0:00:02.00
Peak level 82.0 %
Extraction speed 1.4 X
Track quality 100.0 %
Test CRC 8C2DC02E
Copy CRC 8C2DC02E
Copy OK
Track 2
Filename f:\Users\Guillermo\Desktop\EAC convertidos\02 Pista02.wav
Peak level 72.3 %
Extraction speed 1.4 X
Track quality 100.0 %
Test CRC B6FA0AFC
Copy CRC B6FA0AFC
Copy OK
Track 3
Filename f:\Users\Guillermo\Desktop\EAC convertidos\03 Pista03.wav
Peak level 69.7 %
Extraction speed 1.9 X
Track quality 100.0 %
Test CRC 1807789F
Copy CRC 1807789F
Copy OK
Track 4
Filename f:\Users\Guillermo\Desktop\EAC convertidos\04 Pista04.wav
Peak level 35.8 %
Extraction speed 2.0 X
Track quality 100.0 %
Test CRC 6E08EE45
Copy CRC 6E08EE45
Copy OK
Track 5
Filename f:\Users\Guillermo\Desktop\EAC convertidos\05 Pista05.wav
Peak level 39.5 %
Extraction speed 1.8 X
Track quality 99.9 %
Test CRC 5C7AAF91
Copy CRC 5C7AAF91
Copy OK
Track 6
Filename f:\Users\Guillermo\Desktop\EAC convertidos\06 Pista06.wav
Peak level 31.9 %
Extraction speed 2.2 X
Track quality 100.0 %
Test CRC C44566FF
Copy CRC C44566FF
Copy OK
Track 7
Filename f:\Users\Guillermo\Desktop\EAC convertidos\07 Pista07.wav
Peak level 62.7 %
Extraction speed 2.1 X
Track quality 100.0 %
Test CRC 112665B9
Copy CRC 112665B9
Copy OK
Track 8
Filename f:\Users\Guillermo\Desktop\EAC convertidos\08 Pista08.wav
Peak level 32.8 %
Extraction speed 2.3 X
Track quality 100.0 %
Test CRC C4437660
Copy CRC C4437660
Copy OK
Track 9
Filename f:\Users\Guillermo\Desktop\EAC convertidos\09 Pista09.wav
Peak level 73.2 %
Extraction speed 2.2 X
Track quality 99.9 %
Test CRC BE1BDE03
Copy CRC BE1BDE03
Copy OK
Track 10
Filename f:\Users\Guillermo\Desktop\EAC convertidos\10 Pista10.wav
Peak level 74.6 %
Extraction speed 2.2 X
Track quality 100.0 %
Test CRC 7F8F27FE
Copy CRC 7F8F27FE
Copy OK
Track 11
Filename f:\Users\Guillermo\Desktop\EAC convertidos\11 Pista11.wav
Peak level 63.0 %
Extraction speed 2.9 X
Track quality 100.0 %
Test CRC F8A5B4F4
Copy CRC F8A5B4F4
Copy OK
Track 12
Filename f:\Users\Guillermo\Desktop\EAC convertidos\12 Pista12.wav
Peak level 33.8 %
Extraction speed 3.0 X
Track quality 100.0 %
Test CRC D46A8023
Copy CRC D46A8023
Copy OK
Track 13
Filename f:\Users\Guillermo\Desktop\EAC convertidos\13 Pista13.wav
Peak level 44.7 %
Extraction speed 2.5 X
Track quality 99.9 %
Test CRC 829AB999
Copy CRC 829AB999
Copy OK
Track 14
Filename f:\Users\Guillermo\Desktop\EAC convertidos\14 Pista14.wav
Peak level 98.2 %
Extraction speed 3.0 X
Track quality 100.0 %
Test CRC 8016BED0
Copy CRC 8016BED0
Copy OK
No errors occurred
End of status report
==== Log checksum 19768F74C06F01DA13235F0DC3CEBDA6FAA13288AD79DC02B7D6C9E0FEA70019 ====



Показать сообщения:    

Текущее время: 05-Дек 11:34

Часовой пояс: UTC + 3


Вы не можете начинать темы
Вы не можете отвечать на сообщения
Вы не можете редактировать свои сообщения
Вы не можете удалять свои сообщения
Вы не можете голосовать в опросах
Вы не можете прикреплять файлы к сообщениям
Вы не можете скачивать файлы