(Opera) Giuseppe Verdi - I Due Foscari / Джузеппе Верди - Двое Фоскари (Carlo Maria Giulini; Gian Giacomo Guelfi, Maria Vitale, Carlo Bergonzi, Pasquale Lombardi), 1951 - Milano's Studio della Rai / 1994, FLAC (tracks+.cue), lossless


 

[Цитировать]

Giuseppe Verdi - I Due Foscari / Джузеппе Верди - Двое Фоскари (Carlo Maria Giulini; Gian Giacomo Guelfi, Maria Vitale, Carlo Bergonzi, Pasquale Lombardi)
Жанр: Opera
Страна-производитель диска: Италия
Год издания диска: 1994
Издатель (лейбл): Fonit Cetra/Warner Music
Дата записи: 1951
Аудиокодек: FLAC
Тип рипа: tracks+.cue
Битрейт аудио: lossless
Продолжительность: 97:37
Источник: релизер (Guillermo)
Исполнители:
Francesco Foscari - Gian Giacomo Guelfi,
Lucrezia Contandini - Maria Vitale,
Jacopo Foscari - Carlo Bergonzi,
Jacopo Loredano - Pasquale Lombardi,
Barbarigo - Mario Bersieri,
Servo - Gianni Barbieri,
Pisana - Liliana Pellegrino,
Fante - Aldo Bertocci.
Carlo Maria Giulini, Conductor,
Orchestra and Chorus of Milano della Rai.
Recorded at Milano's Auditorium della Rai, December, 4, 1951.

Лог создания рипаЛог создания рипа CD 1

Exact Audio Copy V1.0 beta 3 from 29. August 2011
EAC extraction logfile from 18. April 2015, 17:34
Verdi / I due Foscari (1/2)
Used drive : HL-DT-STDVDRAM GH24NSC0 Adapter: 3 ID: 0
Read mode : Secure
Utilize accurate stream : Yes
Defeat audio cache : Yes
Make use of C2 pointers : No
Read offset correction : 6
Overread into Lead-In and Lead-Out : No
Fill up missing offset samples with silence : Yes
Delete leading and trailing silent blocks : No
Null samples used in CRC calculations : Yes
Used interface : Native Win32 interface for Win NT & 2000
Used output format : User Defined Encoder
Selected bitrate : 768 kBit/s
Quality : High
Add ID3 tag : No
Command line compressor : C:\Program Files (x86)\Exact Audio Copy\FLAC\FLAC.EXE
Additional command line options : -8 -V -T "ARTIST=%artist%" -T "TITLE=%title%" -T "ALBUM=%albumtitle%" -T "DATE=%year%" -T "TRACKNUMBER=%tracknr%" -T "GENRE=%genre%" -T "PERFORMER=%albuminterpret%" -T "COMPOSER=%composer%" %haslyrics%--tag-from-file=LYRICS="%lyricsfile%"%haslyrics% -T "ALBUMARTIST=%albumartist%" -T "DISCNUMBER=%cdnumber%" -T "TOTALDISCS=%totalcds%" -T "TOTALTRACKS=%numtracks%" -T "COMMENT=%comment%" %source% -o %dest%
TOC of the extracted CD
Track | Start | Length | Start sector | End sector
---------------------------------------------------------
1 | 0:00.33 | 2:36.70 | 33 | 11802
2 | 2:37.28 | 4:13.27 | 11803 | 30804
3 | 6:50.55 | 4:51.48 | 30805 | 52677
4 | 11:42.28 | 4:05.47 | 52678 | 71099
5 | 15:48.00 | 3:08.23 | 71100 | 85222
6 | 18:56.23 | 2:03.60 | 85223 | 94507
7 | 21:00.08 | 1:27.40 | 94508 | 101072
8 | 22:27.48 | 1:59.67 | 101073 | 110064
9 | 24:27.40 | 2:26.25 | 110065 | 121039
10 | 26:53.65 | 1:30.33 | 121040 | 127822
11 | 28:24.23 | 5:32.25 | 127823 | 152747
Track 1
Filename f:\Users\Guillermo\Desktop\EAC convertidos\01 Preludio.wav
Pre-gap length 0:00:02.44
Peak level 51.5 %
Extraction speed 1.3 X
Track quality 100.0 %
Test CRC 8A8E2A8C
Copy CRC 8A8E2A8C
Copy OK
Track 2
Filename f:\Users\Guillermo\Desktop\EAC convertidos\02 Silenzio... Mistero....wav
Peak level 88.5 %
Extraction speed 1.3 X
Track quality 99.9 %
Test CRC F08E2D74
Copy CRC F08E2D74
Copy OK
Track 3
Filename f:\Users\Guillermo\Desktop\EAC convertidos\03 Qui ti rimani alquanto.wav
Peak level 54.1 %
Extraction speed 1.8 X
Track quality 100.0 %
Test CRC 61507F7E
Copy CRC 61507F7E
Copy OK
Track 4
Filename f:\Users\Guillermo\Desktop\EAC convertidos\04 No... mi lasciate. . . andar io voglio a lui. . ..wav
Peak level 74.0 %
Extraction speed 1.9 X
Track quality 100.0 %
Test CRC 3FEEFA70
Copy CRC 3FEEFA70
Copy OK
Track 5
Filename f:\Users\Guillermo\Desktop\EAC convertidos\05 Tu al cui sguardo onnipossente.wav
Peak level 69.8 %
Extraction speed 1.5 X
Track quality 99.8 %
Test CRC 23F953FF
Copy CRC 23F953FF
Copy OK
Track 6
Filename f:\Users\Guillermo\Desktop\EAC convertidos\06 Che mi rechi. . . favella. . ..wav
Peak level 87.2 %
Extraction speed 1.8 X
Track quality 100.0 %
Test CRC 5C37D3EE
Copy CRC 5C37D3EE
Copy OK
Track 7
Filename f:\Users\Guillermo\Desktop\EAC convertidos\07 Tacque il reo!.wav
Peak level 74.6 %
Extraction speed 1.6 X
Track quality 100.0 %
Test CRC E7FB4F7B
Copy CRC E7FB4F7B
Copy OK
Track 8
Filename f:\Users\Guillermo\Desktop\EAC convertidos\08 Eccomi solo alfine. . ..wav
Peak level 76.2 %
Extraction speed 1.8 X
Track quality 100.0 %
Test CRC 2DDE03EF
Copy CRC 2DDE03EF
Copy OK
Track 9
Filename f:\Users\Guillermo\Desktop\EAC convertidos\09 O vecchio cor, che batti.wav
Peak level 74.9 %
Extraction speed 2.0 X
Track quality 100.0 %
Test CRC C0255F43
Copy CRC C0255F43
Copy OK
Track 10
Filename f:\Users\Guillermo\Desktop\EAC convertidos\10 L 'illustre dama Foscarì.wav
Peak level 84.9 %
Extraction speed 1.7 X
Track quality 100.0 %
Test CRC 0154E220
Copy CRC 0154E220
Copy OK
Track 11
Filename f:\Users\Guillermo\Desktop\EAC convertidos\11 Tu pur lo sai che giudice.wav
Peak level 86.8 %
Extraction speed 2.5 X
Track quality 100.0 %
Test CRC ECB339EC
Copy CRC ECB339EC
Copy OK
No errors occurred
End of status report
==== Log checksum C5F05F1E23D7444D9FBA0479E8F7E1F99134ADA5414572B373B87F83123DD9BE ====

Лог создания рипа CD 2

Exact Audio Copy V1.0 beta 3 from 29. August 2011
EAC extraction logfile from 18. April 2015, 19:12
Verdi / I due Foscari CD2 (Milano della Rai, Carlo Maria Giulini)
Used drive : HL-DT-STDVDRAM GH24NSC0 Adapter: 3 ID: 0
Read mode : Secure
Utilize accurate stream : Yes
Defeat audio cache : Yes
Make use of C2 pointers : No
Read offset correction : 6
Overread into Lead-In and Lead-Out : No
Fill up missing offset samples with silence : Yes
Delete leading and trailing silent blocks : No
Null samples used in CRC calculations : Yes
Used interface : Native Win32 interface for Win NT & 2000
Used output format : User Defined Encoder
Selected bitrate : 768 kBit/s
Quality : High
Add ID3 tag : No
Command line compressor : C:\Program Files (x86)\Exact Audio Copy\FLAC\FLAC.EXE
Additional command line options : -8 -V -T "ARTIST=%artist%" -T "TITLE=%title%" -T "ALBUM=%albumtitle%" -T "DATE=%year%" -T "TRACKNUMBER=%tracknr%" -T "GENRE=%genre%" -T "PERFORMER=%albuminterpret%" -T "COMPOSER=%composer%" %haslyrics%--tag-from-file=LYRICS="%lyricsfile%"%haslyrics% -T "ALBUMARTIST=%albumartist%" -T "DISCNUMBER=%cdnumber%" -T "TOTALDISCS=%totalcds%" -T "TOTALTRACKS=%numtracks%" -T "COMMENT=%comment%" %source% -o %dest%
TOC of the extracted CD
Track | Start | Length | Start sector | End sector
---------------------------------------------------------
1 | 0:00.32 | 4:05.60 | 32 | 18466
2 | 4:06.17 | 2:01.15 | 18467 | 27556
3 | 6:07.32 | 2:51.08 | 27557 | 40389
4 | 8:58.40 | 3:04.42 | 40390 | 54231
5 | 12:03.07 | 0:57.53 | 54232 | 58559
6 | 13:00.60 | 2:02.42 | 58560 | 67751
7 | 15:03.27 | 1:39.70 | 67752 | 75246
8 | 16:43.22 | 5:50.23 | 75247 | 101519
9 | 22:33.45 | 1:37.62 | 101520 | 108856
10 | 24:11.32 | 3:09.68 | 108857 | 123099
11 | 27:21.25 | 3:37.17 | 123100 | 139391
12 | 30:58.42 | 4:32.23 | 139392 | 159814
13 | 35:30.65 | 1:21.45 | 159815 | 165934
14 | 36:52.35 | 0:25.67 | 165935 | 167876
15 | 37:18.27 | 2:01.70 | 167877 | 177021
16 | 39:20.22 | 3:24.25 | 177022 | 192346
17 | 42:44.47 | 3:51.68 | 192347 | 209739
18 | 46:36.40 | 3:09.20 | 209740 | 223934
19 | 49:45.60 | 1:30.25 | 223935 | 230709
20 | 51:16.10 | 1:22.15 | 230710 | 236874
21 | 52:38.25 | 3:01.22 | 236875 | 250471
22 | 55:39.47 | 3:50.43 | 250472 | 267764
23 | 59:30.15 | 1:22.72 | 267765 | 273986
24 | 60:53.12 | 2:49.28 | 273987 | 286689
Track 1
Filename f:\Users\Guillermo\Desktop\EAC convertidos\01 Atto Secondo - No. 08 - Notte! ... perpetua notte, che qui regni! ....wav
Pre-gap length 0:00:02.42
Peak level 56.8 %
Extraction speed 1.5 X
Track quality 100.0 %
Test CRC 99574A40
Copy CRC 99574A40
Copy OK
Track 2
Filename f:\Users\Guillermo\Desktop\EAC convertidos\02 Atto Secondo - No. 08 - Non maledirmi, o prode.wav
Peak level 53.3 %
Extraction speed 1.4 X
Track quality 100.0 %
Test CRC 67B35722
Copy CRC 67B35722
Copy OK
Track 3
Filename f:\Users\Guillermo\Desktop\EAC convertidos\03 Atto Secondo - No. 09 - Ah sposo mio! ... che vedo.wav
Peak level 48.8 %
Extraction speed 1.3 X
Track quality 99.8 %
Test CRC 8BFE0F25
Copy CRC 8BFE0F25
Copy OK
Track 4
Filename f:\Users\Guillermo\Desktop\EAC convertidos\04 Atto Secondo - No. 09 - No, non morrai.wav
Peak level 45.2 %
Extraction speed 1.7 X
Track quality 100.0 %
Test CRC 7ED75B78
Copy CRC 7ED75B78
Copy OK
Track 5
Filename f:\Users\Guillermo\Desktop\EAC convertidos\05 Atto Secondo - No. 09 - Tutta è calma la laguna.wav
Peak level 16.1 %
Extraction speed 0.8 X
Track quality 99.6 %
Test CRC 8F721B93
Copy CRC 8F721B93
Copy OK
Track 6
Filename f:\Users\Guillermo\Desktop\EAC convertidos\06 Atto Secondo - No. 09 - Maledetto chi mi toglie.wav
Peak level 57.9 %
Extraction speed 1.6 X
Track quality 100.0 %
Test CRC 7045E287
Copy CRC 7045E287
Copy OK
Track 7
Filename f:\Users\Guillermo\Desktop\EAC convertidos\07 Atto Secondo - No. 10 - Ah, padre! ....wav
Peak level 58.3 %
Extraction speed 1.6 X
Track quality 100.0 %
Test CRC 7379BC52
Copy CRC 7379BC52
Copy OK
Track 8
Filename f:\Users\Guillermo\Desktop\EAC convertidos\08 Atto Secondo - No. 10 - Nel tuo paterno amplesso.wav
Peak level 59.5 %
Extraction speed 2.3 X
Track quality 100.0 %
Test CRC B5ECD328
Copy CRC B5ECD328
Copy OK
Track 9
Filename f:\Users\Guillermo\Desktop\EAC convertidos\09 Atto Secondo - No. 10 - Ah sì, il tempo che mai non s'arresta.wav
Peak level 51.2 %
Extraction speed 1.3 X
Track quality 99.7 %
Test CRC A074B798
Copy CRC A074B798
Copy OK
Track 10
Filename f:\Users\Guillermo\Desktop\EAC convertidos\10 Atto Secondo - No. 11 - Che più si tarda.wav
Peak level 52.6 %
Extraction speed 1.8 X
Track quality 99.8 %
Test CRC 5C24EAA9
Copy CRC 5C24EAA9
Copy OK
Track 11
Filename f:\Users\Guillermo\Desktop\EAC convertidos\11 Atto Secondo - No. 11 - O patrizi ... il volesse ... eccomi a voi.wav
Peak level 55.9 %
Extraction speed 2.3 X
Track quality 100.0 %
Test CRC 69AB58A9
Copy CRC 69AB58A9
Copy OK
Track 12
Filename f:\Users\Guillermo\Desktop\EAC convertidos\12 Atto Secondo - No. 11 - Queste innocenti lagrime.wav
Peak level 60.9 %
Extraction speed 2.6 X
Track quality 100.0 %
Test CRC 71DC39FD
Copy CRC 71DC39FD
Copy OK
Track 13
Filename f:\Users\Guillermo\Desktop\EAC convertidos\13 Atto Terzo - No. 12 - Alla gioia! ... All ecorse, alle gare ....wav
Pre-gap length 0:00:05.80
Peak level 51.4 %
Extraction speed 1.3 X
Track quality 99.7 %
Test CRC A362911F
Copy CRC A362911F
Copy OK
Track 14
Filename f:\Users\Guillermo\Desktop\EAC convertidos\14 Atto Terzo - No. 12 - Amici ... che s'aspetta.wav
Peak level 43.3 %
Extraction speed 1.0 X
Track quality 100.0 %
Test CRC C6B92E7A
Copy CRC C6B92E7A
Copy OK
Track 15
Filename f:\Users\Guillermo\Desktop\EAC convertidos\15 Atto Terzo - No. 12 - Tace il vento, è queta l'onda.wav
Peak level 45.9 %
Extraction speed 2.2 X
Track quality 100.0 %
Test CRC 002B1AD2
Copy CRC 002B1AD2
Copy OK
Track 16
Filename f:\Users\Guillermo\Desktop\EAC convertidos\16 Atto Terzo - No. 13 - La giustizia del Leone! ....wav
Peak level 55.7 %
Extraction speed 2.6 X
Track quality 100.0 %
Test CRC 5A4932B4
Copy CRC 5A4932B4
Copy OK
Track 17
Filename f:\Users\Guillermo\Desktop\EAC convertidos\17 Atto Terzo - No. 13 - All'infelice veglio.wav
Peak level 48.9 %
Extraction speed 2.8 X
Track quality 100.0 %
Test CRC 45627703
Copy CRC 45627703
Copy OK
Track 18
Filename f:\Users\Guillermo\Desktop\EAC convertidos\18 Atto Terzo - No. 14 - Egli ora parte! ... Ed innocente parte! ....wav
Peak level 31.3 %
Extraction speed 2.2 X
Track quality 99.8 %
Test CRC BF9D827D
Copy CRC BF9D827D
Copy OK
Track 19
Filename f:\Users\Guillermo\Desktop\EAC convertidos\19 Atto Terzo - No. 14 - Barbarigo, che rechi!.wav
Peak level 43.0 %
Extraction speed 2.2 X
Track quality 100.0 %
Test CRC 52616542
Copy CRC 52616542
Copy OK
Track 20
Filename f:\Users\Guillermo\Desktop\EAC convertidos\20 Atto Terzo - No. 14 - Più non vive! ....wav
Peak level 46.6 %
Extraction speed 1.5 X
Track quality 99.7 %
Test CRC E55F4371
Copy CRC E55F4371
Copy OK
Track 21
Filename f:\Users\Guillermo\Desktop\EAC convertidos\21 Atto Terzo - No. 15 - Signor, chiedon parlati i Dieci ....wav
Peak level 54.6 %
Extraction speed 2.3 X
Track quality 99.8 %
Test CRC E9963CA5
Copy CRC E9963CA5
Copy OK
Track 22
Filename f:\Users\Guillermo\Desktop\EAC convertidos\22 Atto Terzo - No. 15 - Questa dunque è l'iniqua mercede.wav
Peak level 50.9 %
Extraction speed 3.0 X
Track quality 100.0 %
Test CRC 254002DE
Copy CRC 254002DE
Copy OK
Track 23
Filename f:\Users\Guillermo\Desktop\EAC convertidos\23 Atto Terzo - No. 15 - Padre ... mio prence ....wav
Peak level 30.6 %
Extraction speed 2.3 X
Track quality 100.0 %
Test CRC 702B900A
Copy CRC 702B900A
Copy OK
Track 24
Filename f:\Users\Guillermo\Desktop\EAC convertidos\24 Atto Terzo - No. 15 - Quel bronzo ferale.wav
Peak level 53.5 %
Extraction speed 2.9 X
Track quality 100.0 %
Test CRC 1D73946F
Copy CRC 1D73946F
Copy OK
No errors occurred
End of status report
==== Log checksum CC14686A479E4B4450C180E4BCBE0F9FF6B903F823EED9EC55544E511729D7FB ====

Содержание индексной карты (.CUE)Содержание индексной карты (.CUE) CD 1

REM GENRE Opera
REM DATE 1951
REM DISCID 8907F40B
REM COMMENT "ExactAudioCopy v1.0b3"
FILE "01 Preludio.wav" WAVE
TRACK 01 AUDIO
PREGAP 00:00:33
INDEX 01 00:00:00
FILE "02 Silenzio... Mistero....wav" WAVE
TRACK 02 AUDIO
INDEX 01 00:00:00
FILE "03 Qui ti rimani alquanto.wav" WAVE
TRACK 03 AUDIO
INDEX 01 00:00:00
FILE "04 No... mi lasciate. . . andar io voglio a lui. . ..wav" WAVE
TRACK 04 AUDIO
INDEX 01 00:00:00
FILE "05 Tu al cui sguardo onnipossente.wav" WAVE
TRACK 05 AUDIO
INDEX 01 00:00:00
FILE "06 Che mi rechi. . . favella. . ..wav" WAVE
TRACK 06 AUDIO
INDEX 01 00:00:00
FILE "07 Tacque il reo!.wav" WAVE
TRACK 07 AUDIO
INDEX 01 00:00:00
FILE "08 Eccomi solo alfine. . ..wav" WAVE
TRACK 08 AUDIO
INDEX 01 00:00:00
FILE "09 O vecchio cor, che batti.wav" WAVE
TRACK 09 AUDIO
INDEX 01 00:00:00
FILE "10 L 'illustre dama Foscarм.wav" WAVE
TRACK 10 AUDIO
INDEX 01 00:00:00
FILE "11 Tu pur lo sai che giudice.wav" WAVE
TRACK 11 AUDIO
INDEX 01 00:00:00

Содержание индексной карты (.CUE) CD 2

REM GENRE Classical
REM DATE 1951
REM DISCID 4F0EEE18
REM COMMENT "ExactAudioCopy v1.0b3"
FILE "01 Atto Secondo - No. 08 - Notte! ... perpetua notte, che qui regni! ....wav" WAVE
TRACK 01 AUDIO
PREGAP 00:00:32
INDEX 01 00:00:00
FILE "02 Atto Secondo - No. 08 - Non maledirmi, o prode.wav" WAVE
TRACK 02 AUDIO
INDEX 01 00:00:00
FILE "03 Atto Secondo - No. 09 - Ah sposo mio! ... che vedo.wav" WAVE
TRACK 03 AUDIO
INDEX 01 00:00:00
FILE "04 Atto Secondo - No. 09 - No, non morrai.wav" WAVE
TRACK 04 AUDIO
INDEX 01 00:00:00
FILE "05 Atto Secondo - No. 09 - Tutta и calma la laguna.wav" WAVE
TRACK 05 AUDIO
INDEX 01 00:00:00
FILE "06 Atto Secondo - No. 09 - Maledetto chi mi toglie.wav" WAVE
TRACK 06 AUDIO
INDEX 01 00:00:00
FILE "07 Atto Secondo - No. 10 - Ah, padre! ....wav" WAVE
TRACK 07 AUDIO
INDEX 01 00:00:00
FILE "08 Atto Secondo - No. 10 - Nel tuo paterno amplesso.wav" WAVE
TRACK 08 AUDIO
INDEX 01 00:00:00
FILE "09 Atto Secondo - No. 10 - Ah sм, il tempo che mai non s'arresta.wav" WAVE
TRACK 09 AUDIO
INDEX 01 00:00:00
FILE "10 Atto Secondo - No. 11 - Che piщ si tarda.wav" WAVE
TRACK 10 AUDIO
INDEX 01 00:00:00
FILE "11 Atto Secondo - No. 11 - O patrizi ... il volesse ... eccomi a voi.wav" WAVE
TRACK 11 AUDIO
INDEX 01 00:00:00
FILE "12 Atto Secondo - No. 11 - Queste innocenti lagrime.wav" WAVE
TRACK 12 AUDIO
INDEX 01 00:00:00
TRACK 13 AUDIO
INDEX 00 04:26:38
FILE "13 Atto Terzo - No. 12 - Alla gioia! ... All ecorse, alle gare ....wav" WAVE
INDEX 01 00:00:00
FILE "14 Atto Terzo - No. 12 - Amici ... che s'aspetta.wav" WAVE
TRACK 14 AUDIO
INDEX 01 00:00:00
FILE "15 Atto Terzo - No. 12 - Tace il vento, и queta l'onda.wav" WAVE
TRACK 15 AUDIO
INDEX 01 00:00:00
FILE "16 Atto Terzo - No. 13 - La giustizia del Leone! ....wav" WAVE
TRACK 16 AUDIO
INDEX 01 00:00:00
FILE "17 Atto Terzo - No. 13 - All'infelice veglio.wav" WAVE
TRACK 17 AUDIO
INDEX 01 00:00:00
FILE "18 Atto Terzo - No. 14 - Egli ora parte! ... Ed innocente parte! ....wav" WAVE
TRACK 18 AUDIO
INDEX 01 00:00:00
FILE "19 Atto Terzo - No. 14 - Barbarigo, che rechi!.wav" WAVE
TRACK 19 AUDIO
INDEX 01 00:00:00
FILE "20 Atto Terzo - No. 14 - Piщ non vive! ....wav" WAVE
TRACK 20 AUDIO
INDEX 01 00:00:00
FILE "21 Atto Terzo - No. 15 - Signor, chiedon parlati i Dieci ....wav" WAVE
TRACK 21 AUDIO
INDEX 01 00:00:00
FILE "22 Atto Terzo - No. 15 - Questa dunque и l'iniqua mercede.wav" WAVE
TRACK 22 AUDIO
INDEX 01 00:00:00
FILE "23 Atto Terzo - No. 15 - Padre ... mio prence ....wav" WAVE
TRACK 23 AUDIO
INDEX 01 00:00:00
FILE "24 Atto Terzo - No. 15 - Quel bronzo ferale.wav" WAVE
TRACK 24 AUDIO
INDEX 01 00:00:00

Треклист

Disc 1:
Act I:
1. No.1: Prld
2. No.2 Intro: 'Silenzio...Mistero...'
3. No.3 Scena E Cavatina Recitativo: 'Qui Ti Rimani Alquanto'
4. No.4 Scena Ed Aria Recitativo: 'No...MI Lasciate...Andar Io Voglio A Lui...'
5. No.4 Scena Ed Aria Recitativo: 'Tu Al Cui Sguardo Onnipossente'
6. No.4 Scena Ed Aria Recitativo: 'Che Mi Rechi?...Favella...'
7. No.5 Chor: 'Tacque Il Reo!'
8. No.6 Scena E Romanza: 'Ecomi Solo Alfine...'
9. No.6 Scena E Romanza: 'O Vecchio Cor, Che Batti'
10. No.7 Scena E Duetto Finale Primo: 'Tu Pur Lo Sai Che Giudice'
11. No.7 Scena E Duetto Finale Primo: 'Tu Pur Lo Sai Che Giudice'
Disc 2:
Act II:
1. No.8 Prld, Scena E Preghiera: 'Notte!...Perpetua Notte, Che Qui Regni!...'
2. No.8 Prld, Scena E Preghiera: 'Non Maledirmi, O Prode'
3. No.9 Scena E Duetto: 'Ah, Sposo Mio!...Che Vedo?'
4. No.9 Scena E Duetto: 'No, Non Morrai'
5. No.9 Scena E Duetto: 'Tutta E Calma La Laguna'
6. No.9 Scena E Duetto: 'Maledetto Chi Mi Toglie'
7. No.10 Scena, Terzetto E Quartetto: 'Ah, Padre!...'
8. No.10 Scena, Terzetto E Quartetto: 'Nel Tuo Paterno Amplesso'
9. No.10 Scena, Terzetto E Quartetto: 'Ah Si, Il Tempo Che Mai Non S'Arresta'
10. No.11 Finale: 'Che Piu Si Tarda?'
11. Recitativo: 'O Patrizi...Il Volesse...Eccomi A Voi...'
12. Recitativo: 'Queste Innocenti Lagrime'
Act III:
13. No.12 Intro E Barcarola: 'Alla Gioia!...Alle Corse, Alle Gare...'
14. Recitativo: 'Amici ...Che S'Aspetta?'
15. Recitativo: 'Tace Il Vento, E Queta L'Onda'
16. No.13 Scena Ed Aria: 'La Giustizia Del Leone!...'
17. No.13 Scena Ed Aria: 'All'Infelice Veglio'
18. No.14 Recitativo Ed Aria: 'Egli Ora Parte!...Ed Innocente Parte!...'
19. No.14 Recitativo Ed Aria: 'Barbarigo, Che Rechi!'
20. No.14 Recitativo Ed Aria: 'Piu Non Vivie!...'
21. No.15 Scena Ed Aria Finale Recitativo: 'Signor, Chiedon Parlarti I Dieci...'
22. No.15 Scena Ed Aria Finale Recitativo: 'Questa Dunque E L'Iniqua Mercede'
23. No.15 Scena Ed Aria Finale Recitativo: 'Padre...Mio Prence...'
24. No.15 Scena Ed Aria Finale Recitativo: 'Quel Bronzo Ferale''



Показать сообщения:    

Текущее время: 08-Дек 01:17

Часовой пояс: UTC + 3


Вы не можете начинать темы
Вы не можете отвечать на сообщения
Вы не можете редактировать свои сообщения
Вы не можете удалять свои сообщения
Вы не можете голосовать в опросах
Вы не можете прикреплять файлы к сообщениям
Вы не можете скачивать файлы