(Classical) Astor Piazzolla - Maria de Buenos Aires Suite; Verano Porteno; Milonga del Angel - Versus Ensemble, Enrique Moratalla, Maria Rey-Joly, Horacio Ferrer - 2007, FLAC (image+.cue) lossless


 

[Цитировать]

Astor Piazzolla - Maria de Buenos Aires Suite; Verano Porteño; Milonga del Angel - Versus Ensemble, Enrique Moratalla, María Rey-Joly, Horacio Ferrer
Жанр: Classical
Год издания диска: 2007
Издатель (лейбл): Naxos
Номер по каталогу: 8.570523
Дата записи: 2006, 2007
Аудиокодек: FLAC
Тип рипа: image+.cue
Битрейт аудио: lossless
Продолжительность: 52:15
Источник: собственный рип
Наличие сканов в содержимом раздачи: да
Треклист:
Astor Piazzolla (1921-1992)
[1] Milonga del Ángel
[2] Verano Porteño
[3] Chiquilín de Bachín
[4] Libertango
[5] Oblivion
[6] Balada para un Loco
[7]-[11] María de Buenos Aires Suite
Исполнители:
Versus Ensemble
Enrique Moratalla vocals ([3], [6], [7])
María Rey-Joly soprano ([9])
Horacio Ferrer reciter ([11])

Лог создания рипа

Exact Audio Copy V1.0 beta 3 from 29. August 2011
EAC extraction logfile from 13. December 2014, 19:16
Versus Ensemble / Piazzolla - Maria de Buenos Aires Suite
Used drive : HL-DT-STDVDRAM GU70N Adapter: 0 ID: 0
Read mode : Secure
Utilize accurate stream : Yes
Defeat audio cache : Yes
Make use of C2 pointers : No
Read offset correction : 48
Overread into Lead-In and Lead-Out : No
Fill up missing offset samples with silence : Yes
Delete leading and trailing silent blocks : No
Null samples used in CRC calculations : Yes
Used interface : Native Win32 interface for Win NT & 2000
Used output format : User Defined Encoder
Selected bitrate : 128 kBit/s
Quality : High
Add ID3 tag : No
Command line compressor : C:\Program Files (x86)\Exact Audio Copy\Flac\flac.exe
Additional command line options : -V -8 -T "Date=%year%" -T "Genre=%genre%" %source%
TOC of the extracted CD
Track | Start | Length | Start sector | End sector
---------------------------------------------------------
1 | 0:00.00 | 6:19.50 | 0 | 28474
2 | 6:19.50 | 9:00.59 | 28475 | 69033
3 | 15:20.34 | 4:49.63 | 69034 | 90771
4 | 20:10.22 | 2:49.38 | 90772 | 103484
5 | 22:59.60 | 3:54.39 | 103485 | 121073
6 | 26:54.24 | 4:30.42 | 121074 | 141365
7 | 31:24.66 | 5:59.54 | 141366 | 168344
8 | 37:24.45 | 3:33.56 | 168345 | 184375
9 | 40:58.26 | 3:00.32 | 184376 | 197907
10 | 43:58.58 | 3:05.70 | 197908 | 211852
11 | 47:04.53 | 5:08.22 | 211853 | 234974
Range status and errors
Selected range
Filename C:\temp\Naxos_8.570523 - Piazzolla - Maria de Buenos Aires Suite\Piazzolla - Maria de Buenos Aires Suite.wav
Peak level 100.0 %
Extraction speed 5.1 X
Range quality 100.0 %
Test CRC 51609923
Copy CRC 51609923
Copy OK
No errors occurred
AccurateRip summary
Track 1 accurately ripped (confidence 3) [1CE2E197] (AR v2)
Track 2 accurately ripped (confidence 3) [B3572A0A] (AR v2)
Track 3 accurately ripped (confidence 3) [152B5608] (AR v2)
Track 4 accurately ripped (confidence 3) [759F0B76] (AR v2)
Track 5 accurately ripped (confidence 3) [0B53AEA8] (AR v2)
Track 6 accurately ripped (confidence 3) [72862BE2] (AR v2)
Track 7 accurately ripped (confidence 3) [E0279F85] (AR v2)
Track 8 accurately ripped (confidence 3) [C89671C0] (AR v2)
Track 9 accurately ripped (confidence 3) [AFB6A143] (AR v2)
Track 10 accurately ripped (confidence 3) [D41D2395] (AR v2)
Track 11 accurately ripped (confidence 3) [D90E0631] (AR v2)
All tracks accurately ripped
End of status report
==== Log checksum 51FB06AD69C7AC82165122C2C5A71E749C79CE1C38B418B101EFBEA8951F2B8F ====



Показать сообщения:    

Текущее время: 05-Дек 15:33

Часовой пояс: UTC + 3


Вы не можете начинать темы
Вы не можете отвечать на сообщения
Вы не можете редактировать свои сообщения
Вы не можете удалять свои сообщения
Вы не можете голосовать в опросах
Вы не можете прикреплять файлы к сообщениям
Вы не можете скачивать файлы