(Sacred) Gioachino Rossini - Petite Messe Solennelle / Джоаккино Россини - Маленькая торжественная Месса (Marcus Creed; Krassimira Stoyanova, Birgit Remmert, Steve Davislim, Hanno Muller-Brachmann) - 2001, FLAC (image+.cue), lossless


Статистика раздачи [Обновить пиров]
Размер:  294 MB   |    Зарегистрирован:  8 месяцев 17 дней   |    Скачан:  0 раз

Полного источника не было: Никогда

 
   
 
 
 

[Цитировать]

Gioachino Rossini - Petite Messe Solennelle / Джоаккино Россини - Маленькая торжественная Месса (Marcus Creed; Krassimira Stoyanova, Birgit Remmert, Steve Davislim, Hanno Müller-Brachmann)
Жанр: Sacred
Страна-производитель диска: Германия
Год издания диска: 2001
Издатель (лейбл): harmonia mundi
Дата записи: 2000
Аудиокодек: FLAC
Тип рипа: image+.cue
Битрейт аудио: lossless
Продолжительность: 80:37
Источник: релизер (OdeonMusico)
Исполнители:
Krassimira Stoyanova - soprano,
Birgit Remmert - contralto,
Steve Davislim - tenor,
Hanno Müller-Brachmann - bass.
Marcus Creed - conductor,
Philip Mayers - fortepiano [Pleyel, 1869],
Phillip Moll - fortepiano [Pleyel, 1858],
Ryoko Morroka - harmonium [Debain, 1869],
Rias Kammerchor.
Recorded at Jesus Christus Kirche, Berlin, May 2000.

Лог создания рипа

Exact Audio Copy V1.0 beta 3 from 29. August 2011
EAC extraction logfile from 20. October 2014, 18:27
Marcus Creed / Rossini - Petite Messe solennelle - Marcus Creed
Used drive : TSSTcorpCDDVDW SH-222BB Adapter: 2 ID: 1
Read mode : Secure
Utilize accurate stream : Yes
Defeat audio cache : Yes
Make use of C2 pointers : No
Read offset correction : 6
Overread into Lead-In and Lead-Out : No
Fill up missing offset samples with silence : Yes
Delete leading and trailing silent blocks : No
Null samples used in CRC calculations : Yes
Used interface : Native Win32 interface for Win NT & 2000
Used output format : User Defined Encoder
Selected bitrate : 896 kBit/s
Quality : High
Add ID3 tag : No
Command line compressor : C:\Program Files\Exact Audio Copy\FLAC\FLAC.EXE
Additional command line options : -8 -V -T "TITLE=%title%" -T "ARTIST=%artist%" -T "ALBUMARTIST=%albumartist%" -T "ALBUM=%albumtitle%" -T "DATE=%year%" -T "TRACKNUMBER=%tracknr%" -T "TRACKTOTAL=%numtracks%" -T "GENRE=%genre%" -T "COMMENT=%comment%" -T "PERFORMER=%albuminterpret%" -T "COMPOSER=%composer%" %source% -o %dest%
TOC of the extracted CD
Track | Start | Length | Start sector | End sector
---------------------------------------------------------
1 | 0:00.00 | 2:27.12 | 0 | 11036
2 | 2:27.12 | 1:49.65 | 11037 | 19276
3 | 4:17.02 | 2:22.13 | 19277 | 29939
4 | 6:39.15 | 0:37.42 | 29940 | 32756
5 | 7:16.57 | 1:46.35 | 32757 | 40741
6 | 9:03.17 | 4:45.50 | 40742 | 62166
7 | 13:48.67 | 5:37.13 | 62167 | 87454
8 | 19:26.05 | 6:21.32 | 87455 | 116061
9 | 25:47.37 | 7:32.63 | 116062 | 150024
10 | 33:20.25 | 5:33.20 | 150025 | 175019
11 | 38:53.45 | 4:14.30 | 175020 | 194099
12 | 43:08.00 | 3:18.45 | 194100 | 208994
13 | 46:26.45 | 4:51.55 | 208995 | 230874
14 | 51:18.25 | 4:05.27 | 230875 | 249276
15 | 55:23.52 | 7:38.45 | 249277 | 283671
16 | 63:02.22 | 0:33.70 | 283672 | 286216
17 | 63:36.17 | 3:53.13 | 286217 | 303704
18 | 67:29.30 | 5:27.02 | 303705 | 328231
19 | 72:56.32 | 7:25.48 | 328232 | 361654
Range status and errors
Selected range
Filename G:\Ripped general\[7719] Rossini – Petite Messe solennelle – Marcus Creed\Rossini - Petite Messe solennelle - Marcus Creed.wav
Peak level 100.0 %
Extraction speed 7.4 X
Range quality 100.0 %
Test CRC F52165F8
Copy CRC F52165F8
Copy OK
No errors occurred
AccurateRip summary
Track 1 accurately ripped (confidence 16) [15A0E4C5] (AR v2)
Track 2 accurately ripped (confidence 16) [8767A4B8] (AR v2)
Track 3 accurately ripped (confidence 16) [E4B4A241] (AR v2)
Track 4 accurately ripped (confidence 16) [E2D5312E] (AR v2)
Track 5 accurately ripped (confidence 16) [C436C592] (AR v2)
Track 6 accurately ripped (confidence 16) [64EA92DD] (AR v2)
Track 7 accurately ripped (confidence 16) [C188D753] (AR v2)
Track 8 accurately ripped (confidence 16) [78706CA7] (AR v2)
Track 9 accurately ripped (confidence 16) [0AF90548] (AR v2)
Track 10 accurately ripped (confidence 16) [6AB1BCAA] (AR v2)
Track 11 accurately ripped (confidence 16) [155DA0D2] (AR v2)
Track 12 accurately ripped (confidence 16) [F9755C0C] (AR v2)
Track 13 accurately ripped (confidence 16) [B6611726] (AR v2)
Track 14 accurately ripped (confidence 16) [8EAE8A87] (AR v2)
Track 15 accurately ripped (confidence 15) [702A2087] (AR v2)
Track 16 accurately ripped (confidence 16) [80F7A3AE] (AR v2)
Track 17 accurately ripped (confidence 16) [D274990B] (AR v2)
Track 18 accurately ripped (confidence 16) [87BF1803] (AR v2)
Track 19 accurately ripped (confidence 15) [2B1CDB0D] (AR v2)
All tracks accurately ripped
End of status report
==== Log checksum F4FDD53DAB0494420BA912F557C6A21A675C6BEDA65FDB1ABEADE9BCFC5C3570 ====

Содержание индексной карты (.CUE)

REM GENRE Classical
REM DATE 2001
REM DISCID 0D12D613
REM COMMENT "ExactAudioCopy v1.0b3"
PERFORMER "Marcus Creed"
TITLE "Rossini - Petite Messe solennelle - Marcus Creed"
FILE "Rossini - Petite Messe solennelle - Marcus Creed.flac" WAVE
TRACK 01 AUDIO
TITLE "Kyrie - Kyrie"
PERFORMER "Marcus Creed"
ISRC FRZ140011010
INDEX 01 00:00:00
TRACK 02 AUDIO
TITLE "Kyrie - Christe"
PERFORMER "Marcus Creed"
ISRC FRZ140011020
INDEX 01 02:27:12
TRACK 03 AUDIO
TITLE "Kyrie - Kyrie"
PERFORMER "Marcus Creed"
ISRC FRZ140011030
INDEX 01 04:17:02
TRACK 04 AUDIO
TITLE "Gloria - Gloria in excelsis Deo"
PERFORMER "Marcus Creed"
ISRC FRZ140011040
INDEX 01 06:39:15
TRACK 05 AUDIO
TITLE "Gloria - Laudamus Te"
PERFORMER "Marcus Creed"
ISRC FRZ140011050
INDEX 01 07:16:57
TRACK 06 AUDIO
TITLE "Gloria - Gratias"
PERFORMER "Marcus Creed"
ISRC FRZ140011060
INDEX 01 09:03:17
TRACK 07 AUDIO
TITLE "Gloria - Domine Deus"
PERFORMER "Marcus Creed"
ISRC FRZ140011070
INDEX 01 13:48:67
TRACK 08 AUDIO
TITLE "Gloria - Qui tollis"
PERFORMER "Marcus Creed"
ISRC FRZ140011080
INDEX 01 19:26:05
TRACK 09 AUDIO
TITLE "Gloria - Quoniam"
PERFORMER "Marcus Creed"
ISRC FRZ140011090
INDEX 01 25:47:37
TRACK 10 AUDIO
TITLE "Gloria - Cum Sancto Spiritu"
PERFORMER "Marcus Creed"
ISRC FRZ140011100
INDEX 01 33:20:25
TRACK 11 AUDIO
TITLE "Credo - Credo in unum Deum"
PERFORMER "Marcus Creed"
ISRC FRZ140011110
INDEX 01 38:53:45
TRACK 12 AUDIO
TITLE "Credo - Crucifixus"
PERFORMER "Marcus Creed"
ISRC FRZ140011120
INDEX 01 43:08:00
TRACK 13 AUDIO
TITLE "Credo - Et resurrexit"
PERFORMER "Marcus Creed"
ISRC FRZ140011130
INDEX 01 46:26:45
TRACK 14 AUDIO
TITLE "Credo - Et vitam venturi"
PERFORMER "Marcus Creed"
ISRC FRZ140011140
INDEX 01 51:18:25
TRACK 15 AUDIO
TITLE "Prйlude religieux (pendant l'Offertoire)"
PERFORMER "Marcus Creed"
ISRC FRZ140011150
INDEX 01 55:23:52
TRACK 16 AUDIO
TITLE "Ritournelle"
PERFORMER "Marcus Creed"
ISRC FRZ140011160
INDEX 01 63:02:22
TRACK 17 AUDIO
TITLE "Sanctus"
PERFORMER "Marcus Creed"
ISRC FRZ140011170
INDEX 01 63:36:17
TRACK 18 AUDIO
TITLE "O salutaris Hostia"
PERFORMER "Marcus Creed"
ISRC FRZ140011180
INDEX 01 67:29:30
TRACK 19 AUDIO
TITLE "Agnus Dei"
PERFORMER "Marcus Creed"
ISRC FRZ140011180
INDEX 01 72:56:32

Треклист

1. I. Kyrie
2. II. Christe
3. III. Kyrie
Gloria:
4. I. Gloria in excelsis Deo
5. II. Laudamus te
6. III. Gratias
7. IV. Domine Deus
8. V. Qui tollis
9. VI. Quoniam
10. VII. Cum Sancto Spiritu
Credo:
11. I. Credo in unum Deum
12. II. Crucifixus
13. III. Et resurrexit
14. IV. Et vitam venturi
Prélude religieux (pendant l'Offertoire):
15. Ritournelle
16. Sanctus
17. O salutaris
18. Agnus Dei
[teatrix.ru].t21002.torrent 
Торрент: Зарегистрирован [ 2016-03-20 00:55 ] · 3C70053627DF4B6302A29D41199E19BB3AB851A5

Скачать .torrent

Скачать

13 KB

Статус: проверено
Скачан: 0 раз
Размер: 294 MB
terms.php



Быстрый ответ

Имя:

      
Для отправки сообщений необходимо включить JavaScript
Показать сообщения:    

Текущее время: 06-Дек 11:15

Часовой пояс: UTC + 3


Вы можете начинать темы
Вы можете отвечать на сообщения
Вы не можете редактировать свои сообщения
Вы не можете удалять свои сообщения
Вы не можете голосовать в опросах
Вы не можете прикреплять файлы к сообщениям
Вы можете скачивать файлы