[TR24][OF] Franz (Ferenc) Liszt - CEuvres pour piano / Piano works (Nikolai Lugansky / Николай Луганский) - 2011 (Classical, Piano)


Статистика раздачи [Обновить пиров]
Размер:  868 MB   |    Зарегистрирован:  8 месяцев 16 дней   |    Скачан:  0 раз

Полного источника не было: Никогда

 
   
 
 
 

[Цитировать]

Franz Liszt
Œuvres pour piano
Nikolai Lugansky
- Год издания: 2011
Жанр: Classical, Piano
Издатель (лейбл): Ambroisie | naïve
Продолжительность: 01:05:41
Наличие сканов: Sleeve, Digital Booklet
- -
Franz Liszt (1811-1886)
01. Chasse-neige (5:51)
Étude n°12 in B flat minor from Douze études d’exécution transcendante, S. 139
02. Etude n°10 in F minor (4:51)
from Douze études d’exécution transcendante, S. 139
03. La Campanella (4:47)
Étude n°3 in G sharp minor from Grandes études de Paganini, S. 141
04. Vallé d'Obermann (13:41)
from Les Années de pèlerinage, première année : Suisse S. 160
05. Sposalizio (8:41)
from Les Années de pèlerinage, deuxième année : Italie, S. 161
06. Les jeux d'eau de la Villa d'Este (7:37)
from Les Années de pèlerinage, troisième année, S. 163
07. Sonnet de Pétarque 123 (6:50)
from Les Années de pèlerinage, deuxième année : Italie, S. 161
08. Isoldes liebestode (Wagner) S. 447 (6:50)
09. Feux follets (3:47)
Étude n°5 in B flat from Douze études d’exécution transcendante, S. 139
10. Valse oubliée n°1 S. 215 (2:47)

-
Nikolai Lugansky, piano
Recorded: June 2011 at Potton Hall, UK
-Контейнер: FLAC (*.flac)
Тип рипа: tracks
Разрядность: 24bit / 88.2kHz
Количество каналов: 2.0
-О релизе
The great Russian virtuoso Nikolai Lugansky presents his recording to mark the 200th anniversary of the birth of Franz Liszt (1811-1886) – an album of popular piano pieces including La Campanella, Valse oubliée, his version of Isolde’s Liebestod by Wagner, some of the Douze études d’exécution transcendante, and several gems from Années de pèlerinage, among them Vallée d’Obermann, Sposalizio, Les jeux d’eau de la Villa d’Este and Sonnet de Pétrarque 123.
An acclaimed recording artist, Nikolai Lugansky has recently signed an exclusive contract with the Naïve-Ambroisie label. The Moscow-born pianist put together this disc, his first devoted entirely to Liszt’s music, with a seriousness, freedom and concern for overall unity worthy of the composer himself. His last release - an all-Chopin recital for Onyx - was described by The Guardian as “unquestionably thrilling”, and his recording with violinist Repin of Sonatas by Franck, Grieg and Janáček (Deutsche Grammophon, October 2010) was hailed by Gramophone as “a quite magnificent performance”. It also won the Prize for best Chamber Music recording at the BBC Music Magazine Awards 2011. Nikolai Lugansky won the Diapason d’Or for his recordings of the complete Chopin Études and Preludes, and the Rachmaninov Preludes and Moments musicaux, as well as an Echo Klassik Deutscher Musikpreis for his 2005 recording of Rachmaninov’s Piano Concertos Nos 1 & 3. Capable of great refinement and sensitivity in Mozart and Schumann, and breathtaking virtuosity in Rachmaninov and Prokofiev, Lugansky is a pianist of extraordinary depth and versatility. Recent and upcoming engagements include concerto projects with the Leipzig Gewandhaus and Andris Nelsons, Royal Liverpool Philharmonic Orchestra and Vasily Petrenko, Philharmonia Orchestra and Esa-Pekka Salonen, and Chicago Symphony Orchestra, Tonhalle-Orchester Zürich and NHK Symphony Orchestra all with Charles Dutoit; recitals at the Amsterdam Concertgebouw, Moscow State Conservatory, London’s Wigmore Hall, Prague’s Rudolfinum and the Wiener Konzerthaus; and chamber music collaborations with Vadim Repin and Leonidas Kavakos.
Of the numerous Liszt albums issued to mark the composer's bicentenary, this is among the most striking. Nikolai Lugansky is a fine – if occasionally cool – interpreter of his work, blending lyricism with panache and just the right sense of daring, so that you're often conscious of huge technical challenges braved, then overcome. The programme is essentially a selection from the Etudes d'Exécution Transcendente and the three books of Années de Pèlerinage, with the late Valse Oubliée and the transcription of the Liebestod from Wagner's Tristan und Isolde thrown in. Some of it is wonderfully restrained, particularly the performance of Chasse-neige with which the disc opens, where the sheer beauty of Lugansky's playing belies the work's difficulty. Just occasionally – in the Liebestod, and in Petrarch Sonnet 123 – you wish he'd let rip a bit more. But there's a performance of Vallée d'Obermann that is overwhelming in its cumulative power, and an account of Feux Follets that is awesome in its technical dexterity. A flawed disc, though the best of it is an absolute knockout. --Tim Ashley, Guardian

ОтчётыДинамический диапазон

foobar2000 1.2.2 / Dynamic Range Meter 1.1.1
log date: 2015-04-23 10:30:28
--------------------------------------------------------------------------------
Analyzed: Nikolai Lugansky / Franz Liszt : Œuvres pour piano
--------------------------------------------------------------------------------
DR Peak RMS Duration Track
--------------------------------------------------------------------------------
DR14 -1.92 dB -21.77 dB 5:51 ?-Chasse-neige
DR13 -1.46 dB -18.74 dB 4:51 ?-Etude n°10 in F minor
DR14 -2.15 dB -22.52 dB 4:47 ?-La Campanella
DR14 -0.76 dB -22.36 dB 13:41 ?-Vallé d'Obermann
DR14 -1.27 dB -23.45 dB 8:41 ?-Sposalizio
DR15 -1.23 dB -22.63 dB 7:37 ?-Les jeux d'eau de la Villa d'Este
DR15 -2.76 dB -27.83 dB 6:50 ?-Sonnet de Pétarque 123
DR15 -0.10 dB -23.09 dB 6:50 ?-Isoldes liebestode
DR14 -4.03 dB -24.23 dB 3:47 ?-Feux follets
DR14 -5.20 dB -25.60 dB 2:47 ?-Valses oubliée n°1
--------------------------------------------------------------------------------
Number of tracks: 10
Official DR value: DR14
Samplerate: 88200 Hz
Channels: 2
Bits per sample: 24
Bitrate: 1795 kbps
Codec: FLAC
================================================================================

Скриншот спектра частот

Доп. информация

При скачивании, если необходимо, переименуйте папку, в которой будет находиться альбомБольшая просьба к скачавшим поддерживать раздачу! Помогайте другим, ведь вам тоже может понадобиться помощь!Не забываем говорить "Спасибо"!Комментарии приветствуются!
[teatrix.ru].t21005.torrent 
Торрент: Зарегистрирован [ 2016-03-20 00:55 ] · 1DC8B7DABAF9D2FF9BF44D0B13BFFDCFA4FF8EC6

Скачать .torrent

Скачать

18 KB

Статус: проверено
Скачан: 0 раз
Размер: 868 MB
terms.php



Быстрый ответ

Имя:

      
Для отправки сообщений необходимо включить JavaScript
Показать сообщения:    

Текущее время: 05-Дек 05:30

Часовой пояс: UTC + 3


Вы можете начинать темы
Вы можете отвечать на сообщения
Вы не можете редактировать свои сообщения
Вы не можете удалять свои сообщения
Вы не можете голосовать в опросах
Вы не можете прикреплять файлы к сообщениям
Вы можете скачивать файлы