[TR24][OF] Brahms, Schumann, Mahler: Piano Quartets (Live) - Daniel Hope, Paul Neubauer, David Finckel, Wu Han - 2015 (Classical)


Статистика раздачи [Обновить пиров]
Размер:  1.29 GB   |    Зарегистрирован:  8 месяцев 17 дней   |    Скачан:  1 раз

Полного источника не было: 16 дней

 
   
 
 
 

[Цитировать]

Brahms, Schumann, Mahler
Piano QuartetsDaniel Hope · Paul Neubauer · David Finckel · Wu Han
- Год издания: 2015
Жанр: Classical
Издатель (лейбл): Deutsche Grammophon
Продолжительность: 01:17:22
Наличие сканов: Sleeve, Digital Booklet
- -
Gustav Mahler (1860-1911)
Piano Quartet In A Minor
01. 1. Nicht zu schnell (11:43)
Robert Schumann (1810-1856)
Piano Quartet In E Flat, Op.47
02. 1. Sostenuto assai - Allegro ma non troppo (8:42)
03. 2. Scherzo (Molto vivace) (3:41)
04. 3. Andante cantabile (6:37)
05. 4. Finale (Vivace) (7:43)
Johannes Brahms (1833-1897)
Piano Quartet No.1 In G Minor, Op.25
06. 1. Allegro (13:18)
07. 2. Intermezzo (Allegro ma non troppo) (7:50)
08. 3. Andante con moto (9:10)
09. 4. Rondo alla Zingarese (8:37)

-
Контейнер: FLAC (*.flac)
Тип рипа: tracks
Разрядность: 24bit / 96kHz
Количество каналов: 2.0
-О релизе
Bold, lush, and exquisite piano quartets by Mahler, Schumann, and Brahms comprise this unforgettable program. The stellar cast includes CMS Artistic Directors David Finckel and Wu Han, the dynamic violinist Daniel Hope, and viola legend Paul Neubauer.
Daniel Hope, violin
Paul Neubauer, viola
David Finckel, cello
Wu Han, piano
Recorded live at The Chamber Music Society of Lincoln Center at Alice Tully Hall

ОтчётыДинамический диапазон

foobar2000 1.2.2 / Dynamic Range Meter 1.1.1
log date: 2015-04-23 13:08:29
--------------------------------------------------------------------------------
Analyzed: Daniel Hope, Paul Neubauer, David Finckel, Wu Han / Brahms, Schumann, Mahler: Piano Quartets
--------------------------------------------------------------------------------
DR Peak RMS Duration Track
--------------------------------------------------------------------------------
DR14 0.00 dB -20.42 dB 11:43 ?-Piano Quartet In A Minor: 1. Nicht zu schnell
DR13 -1.49 dB -20.72 dB 8:42 ?-Piano Quartet In E Flat, Op.47: 1. Sostenuto assai - Allegro ma non troppo
DR14 -7.46 dB -25.66 dB 3:41 ?-Piano Quartet In E Flat, Op.47: 2. Scherzo (Molto vivace)
DR13 -7.74 dB -27.27 dB 6:37 ?-Piano Quartet In E Flat, Op.47: 3. Andante cantabile
DR15 0.00 dB -19.78 dB 7:43 ?-Piano Quartet In E Flat, Op.47: 4. Finale (Vivace)
DR14 -2.65 dB -21.29 dB 13:18 ?-Piano Quartet No.1 In G Minor, Op.25: 1. Allegro
DR13 -7.48 dB -24.99 dB 7:50 ?-Piano Quartet No.1 In G Minor, Op.25: 2. Intermezzo (Allegro ma non troppo)
DR16 0.00 dB -20.92 dB 9:10 ?-Piano Quartet No.1 In G Minor, Op.25: 3. Andante con moto
DR14 0.00 dB -19.33 dB 8:37 ?-Piano Quartet No.1 In G Minor, Op.25: 4. Rondo alla Zingarese
--------------------------------------------------------------------------------
Number of tracks: 9
Official DR value: DR14
Samplerate: 96000 Hz
Channels: 2
Bits per sample: 24
Bitrate: 2450 kbps
Codec: FLAC
================================================================================

Скриншот спектра частот

Доп. информация

При скачивании, если необходимо, переименуйте папку, в которой будет находиться альбомБольшая просьба к скачавшим поддерживать раздачу! Помогайте другим, ведь вам тоже может понадобиться помощь!Не забываем говорить "Спасибо"!Комментарии приветствуются!
[teatrix.ru].t21006.torrent 
Торрент: Зарегистрирован [ 2016-03-20 00:55 ] · 5E6AD75A03F4642D08FE8C076D970A9D90DD19EC

Скачать .torrent

Скачать

15 KB

Статус: проверено
Скачан: 1 раз
Размер: 1.29 GB
terms.php



Быстрый ответ

Имя:

      
Для отправки сообщений необходимо включить JavaScript
Показать сообщения:    

Текущее время: 06-Дек 11:09

Часовой пояс: UTC + 3


Вы можете начинать темы
Вы можете отвечать на сообщения
Вы не можете редактировать свои сообщения
Вы не можете удалять свои сообщения
Вы не можете голосовать в опросах
Вы не можете прикреплять файлы к сообщениям
Вы можете скачивать файлы