(Classical/Minimalism) Ludovico Einaudi: Portrait (Angele Dubeau & La Pietа) - 2015, FLAC (image+.cue) lossless


 

[Цитировать]

Ludovico Einaudi: Portrait
Жанр: Classical/Minimalism
Страна-производитель диска: Canada
Год издания диска: 2015
Издатель (лейбл): Analekta
Номер по каталогу: AN 2 8738
Дата записи: XII.2014
Аудиокодек: FLAC
Тип рипа: image+.cue
Битрейт аудио: lossless
Продолжительность: 1:08'15"
Источник: собственный рип
Наличие сканов в содержимом раздачи: да
Треклист:
01. Life
02. I giorni
03. Experience
04. Giorni dispari
05. Run
06. Time Lapse
07. Fuori dalla notte
08. Fuori dal mondo
09. Indaco
10. Passaggio
11. Sarabande
12. Svanire
13. Divenire
Исполнители:
Angèle Dubeau & La Pietà-

Лог создания рипа

Exact Audio Copy V1.0 beta 1 from 15. November 2010
EAC extraction logfile from 23. April 2015, 19:08
Angele Dubeau & La Pietа / Ludovico Einaudi Portrait
Used drive : Optiarc DVD RW AD-7203A Adapter: 4 ID: 1
Read mode : Secure
Utilize accurate stream : Yes
Defeat audio cache : Yes
Make use of C2 pointers : No
Read offset correction : 48
Overread into Lead-In and Lead-Out : No
Fill up missing offset samples with silence : Yes
Delete leading and trailing silent blocks : No
Null samples used in CRC calculations : Yes
Used interface : Native Win32 interface for Win NT & 2000
Used output format : User Defined Encoder
Selected bitrate : 128 kBit/s
Quality : High
Add ID3 tag : No
Command line compressor : C:\Program Files\FLAC\flac.exe
Additional command line options : -T "COMMENT=Ripped by GFox" -8 -V %s
TOC of the extracted CD
Track | Start | Length | Start sector | End sector
---------------------------------------------------------
1 | 0:00.00 | 4:17.20 | 0 | 19294
2 | 4:17.20 | 5:44.57 | 19295 | 45151
3 | 10:02.02 | 4:52.07 | 45152 | 67058
4 | 14:54.09 | 5:30.65 | 67059 | 91873
5 | 20:24.74 | 4:48.69 | 91874 | 113542
6 | 25:13.68 | 4:57.58 | 113543 | 135875
7 | 30:11.51 | 4:34.44 | 135876 | 156469
8 | 34:46.20 | 5:00.04 | 156470 | 178973
9 | 39:46.24 | 4:52.14 | 178974 | 200887
10 | 44:38.38 | 5:07.31 | 200888 | 223943
11 | 49:45.69 | 4:43.23 | 223944 | 245191
12 | 54:29.17 | 6:42.73 | 245192 | 275414
13 | 61:12.15 | 7:03.48 | 275415 | 307187
Range status and errors
Selected range
Filename D:\EAC\Angele Dubeau & La Pietа - Ludovico Einaudi Portrait.wav
Peak level 97.5 %
Extraction speed 0.3 X
Range quality 100.0 %
Test CRC 753A4308
Copy CRC 753A4308
Copy OK
No errors occurred
AccurateRip summary
Track 1 not present in database
Track 2 not present in database
Track 3 not present in database
Track 4 not present in database
Track 5 not present in database
Track 6 not present in database
Track 7 not present in database
Track 8 not present in database
Track 9 not present in database
Track 10 not present in database
Track 11 not present in database
Track 12 not present in database
Track 13 not present in database
None of the tracks are present in the AccurateRip database
End of status report
==== Log checksum D17CDA61896A67947EB46DA39CBCE7C0B6268787AC379D0ED0627107B936535F ====
-Ещё диски "портретной" серии:
  • Philip Glass: Portrait
  • Arvo Pärt: Portrait
  • John Adams: Portrait
  • Ludovico Einaudi: Portrait---



  • Показать сообщения:    

    Текущее время: 10-Дек 04:10

    Часовой пояс: UTC + 3


    Вы не можете начинать темы
    Вы не можете отвечать на сообщения
    Вы не можете редактировать свои сообщения
    Вы не можете удалять свои сообщения
    Вы не можете голосовать в опросах
    Вы не можете прикреплять файлы к сообщениям
    Вы не можете скачивать файлы