(Classical) C.P.E.Bach - Magnificat; Die Himmel erzahlen die Ehre Gottes - Mauch, Rexroth, Mammel, Schwarz; Basler Madrigalisten, L'arpa festante, Fritz Näf (Naf) - 2008, FLAC (image+.cue) lossless


Статистика раздачи [Обновить пиров]
Размер:  319 MB   |    Зарегистрирован:  8 месяцев 19 дней   |    Скачан:  0 раз

Полного источника не было: Никогда

 
   
 
 
 

[Цитировать]

C.P.E.Bach - Magnificat; Die Himmel erzählen die Ehre Gottes - Mauch, Rexroth, Mammel, Schwarz; Basler Madrigalisten, L'arpa festante, Fritz Näf
Жанр: Classical
Страна-производитель диска: Germany
Год издания диска: 2008
Издатель (лейбл): Carus
Номер по каталогу: Carus 83.412
Дата записи: 2008
Аудиокодек: FLAC
Тип рипа: image+.cue
Битрейт аудио: lossless
Продолжительность: 62:37
Источник: собственный рип
Наличие сканов в содержимом раздачи: да
Треклист:
Carl Philipp Emanuel Bach (1714-1788)
[1]-[8] Die Himmel erzählen die Ehre Gottes
Weihnachtskantate
[9]-[17] Magnificat
Исполнители:
Monika Mauch Soprano
Matthias Rexroth Altus
Hans Jörg Mammel Tenore
Gotthold Schwarz Basso
Basler Madrigalisten
L'arpa festante
Fritz Näf

Лог создания рипа

Exact Audio Copy V1.0 beta 3 from 29. August 2011
EAC extraction logfile from 19. December 2014, 20:17
Basler Madrigalisten, L'arpa festante, Fritz Naf / C.P.E.Bach - Magnificat
Used drive : HL-DT-STDVDRAM GU70N Adapter: 0 ID: 0
Read mode : Secure
Utilize accurate stream : Yes
Defeat audio cache : Yes
Make use of C2 pointers : No
Read offset correction : 48
Overread into Lead-In and Lead-Out : No
Fill up missing offset samples with silence : Yes
Delete leading and trailing silent blocks : No
Null samples used in CRC calculations : Yes
Used interface : Native Win32 interface for Win NT & 2000
Used output format : User Defined Encoder
Selected bitrate : 128 kBit/s
Quality : High
Add ID3 tag : No
Command line compressor : C:\Program Files (x86)\Exact Audio Copy\Flac\flac.exe
Additional command line options : -V -8 -T "Date=%year%" -T "Genre=%genre%" %source%
TOC of the extracted CD
Track | Start | Length | Start sector | End sector
---------------------------------------------------------
1 | 0:00.00 | 2:05.70 | 0 | 9444
2 | 2:05.70 | 3:31.07 | 9445 | 25276
3 | 5:37.02 | 1:13.58 | 25277 | 30809
4 | 6:50.60 | 2:48.02 | 30810 | 43411
5 | 9:38.62 | 2:20.61 | 43412 | 53972
6 | 11:59.48 | 1:52.48 | 53973 | 62420
7 | 13:52.21 | 1:37.27 | 62421 | 69722
8 | 15:29.48 | 4:12.45 | 69723 | 88667
9 | 19:42.18 | 3:03.56 | 88668 | 102448
10 | 22:45.74 | 5:37.58 | 102449 | 127781
11 | 28:23.57 | 4:11.65 | 127782 | 146671
12 | 32:35.47 | 6:40.74 | 146672 | 176745
13 | 39:16.46 | 4:04.48 | 176746 | 195093
14 | 43:21.19 | 5:58.41 | 195094 | 221984
15 | 49:19.60 | 5:52.48 | 221985 | 248432
16 | 55:12.33 | 1:55.01 | 248433 | 257058
17 | 57:07.34 | 5:27.41 | 257059 | 281624
Range status and errors
Selected range
Filename C:\temp\C.P.E.Bach - Magnificat - Basler Madrigalisten, L'arpa festante\C.P.E.Bach - Magnificat.wav
Peak level 100.0 %
Extraction speed 5.0 X
Range quality 100.0 %
Test CRC 82A7A498
Copy CRC 82A7A498
Copy OK
No errors occurred
AccurateRip summary
Track 1 accurately ripped (confidence 2) [93008F4E] (AR v2)
Track 2 accurately ripped (confidence 2) [D5980031] (AR v2)
Track 3 accurately ripped (confidence 2) [D572255C] (AR v2)
Track 4 accurately ripped (confidence 2) [8A8F5C48] (AR v2)
Track 5 accurately ripped (confidence 2) [5D7804E2] (AR v2)
Track 6 accurately ripped (confidence 2) [B59064FE] (AR v2)
Track 7 accurately ripped (confidence 2) [FD102286] (AR v2)
Track 8 accurately ripped (confidence 2) [10CF562D] (AR v2)
Track 9 accurately ripped (confidence 2) [F1817F2F] (AR v2)
Track 10 accurately ripped (confidence 2) [3C620904] (AR v2)
Track 11 accurately ripped (confidence 2) [18E4B6F4] (AR v2)
Track 12 accurately ripped (confidence 2) [0965E15E] (AR v2)
Track 13 accurately ripped (confidence 2) [81057D9D] (AR v2)
Track 14 accurately ripped (confidence 2) [6967A2B8] (AR v2)
Track 15 accurately ripped (confidence 2) [4C26FD2B] (AR v2)
Track 16 accurately ripped (confidence 2) [97FD3130] (AR v2)
Track 17 accurately ripped (confidence 2) [B654B84B] (AR v2)
All tracks accurately ripped
End of status report
==== Log checksum 81D59297474F01368AB073A22A2D390D05D7F97FD5D118632298B7145735B3E7 ====
[teatrix.ru].t21009.torrent 
Торрент: Зарегистрирован [ 2016-03-20 00:55 ] · B367C8F41ED6EFB4818565FFC32931B97FB63C98

Скачать .torrent

Скачать

27 KB

Статус: проверено
Скачан: 0 раз
Размер: 319 MB
terms.php



Быстрый ответ

Имя:

      
Для отправки сообщений необходимо включить JavaScript
Показать сообщения:    

Текущее время: 08-Дек 23:12

Часовой пояс: UTC + 3


Вы можете начинать темы
Вы можете отвечать на сообщения
Вы не можете редактировать свои сообщения
Вы не можете удалять свои сообщения
Вы не можете голосовать в опросах
Вы не можете прикреплять файлы к сообщениям
Вы можете скачивать файлы