Немецкое кино: от Калигари до Гитлера / Von Caligari zu Hitler: Das deutsche Kino im Zeitalter der Massen (Рюдигер Зухсланд / Rudiger Suchsland) [2014, Германия, документальный, кинематограф, DVB] DVO (24ДОК)


Статистика раздачи [Обновить пиров]
Размер:  2.39 GB   |    Зарегистрирован:  8 месяцев 14 дней   |    Скачан:  1 раз

Полного источника не было: 8 дней

 
   
 
 
 

[Цитировать]

Немецкое кино: от Калигари до Гитлера
Von Caligari zu Hitler: Das deutsche Kino im Zeitalter der Massen- Страна: Германия
Жанр: документальный, кинематограф
Год выпуска: 2014
Продолжительность: 01:50:09
Перевод: Профессиональный (двухголосый закадровый) 24ДОК
Cубтитры: нет
Режиссер: Рюдигер Зухсланд / Rüdiger SuchslandВ ролях: Фолькер Шлёндорф, архивные материалы: Зигфрид Кракауэр, Фриц Ланг, Роберт Вине, Фридрих В. Мурнау, Билли Уайлдер, Георг Вильгельм Пабст, Джозеф фон Штернберг, Эрнст Любич, Марлен Дитрих, Луиза Брукс, Эмиль Янингс, Конрад Фейдт
Описание: Фильм основан на книге Зигфрида Кракауэра "Психологическая история немецкого кино. От Калигари до Гитлера" (1947).
Начиная с 1920 года, когда немецкие фильмы прорвали блокаду, устроенную союзниками своему бывшему противнику, зрители Нью-Йорка, Лондона и Парижа были потрясены удивительными, в то же время озадачивающими достоинствами немецкого кинематографа*. Прототип всех послевоенных немецких фильмов, "Кабинет доктора Калигари", вызвал повсеместно ожесточенные споры. Пол Рота назвал его "первой значительной попыткой выразить творческий дух кинематографическими средствами".
Доп. информация: DVB-S
Награды: премия независимых кинокритиков "Золотой угорь / Bisato d'Oro" за лучший фильм Venice Film Festival 2014 + номинация на лучший документальный фильм.

Качество видео: DVB
Формат видео: MKV
Видео: MPEG Video 2, 720x576@768x576 (4:3), 25 fps, ~2848 kbps avg, 0.275 bit/pixel
Аудио: MPEG Audio 2, 2 ch, 48 kHz, ~192.00 kbps avg

MediaInfo

Общее
Уникальный идентификатор : 236466371095959132712636914072837024299 (0xB1E5C438E9D308948D04EDE0D785EA2B)
Полное имя : E:\My Torrents 2\[apreder]Von_Caligari_zu_Hitler(2014)DVB.mkv
Формат : Matroska
Версия формата : Version 2
Размер файла : 2,39 Гбайт
Продолжительность : 1 ч. 50 м.
Режим общего битрейта : Переменный
Общий поток : 3102 Кбит/сек
Дата кодирования : UTC 2015-04-24 17:26:32
Программа кодирования : mkvmerge v7.8.0 ('River Man') 64bit built on Mar 27 2015 16:31:37
Библиотека кодирования : libebml v1.3.1 + libmatroska v1.4.2
Видео
Идентификатор : 1
Формат : MPEG Video
Версия формата : Version 2
Профиль формата : Main@Main
Параметр BVOP формата : Да
Параметр матрицы формата : Выборочная
Параметр GOP формата : M=3, N=36
Format_Settings_PictureStructure : Frame
Идентификатор кодека : V_MPEG2
Идентификатор кодека/Информация : MPEG 1 or 2 Video
Продолжительность : 1 ч. 50 м.
Вид битрейта : Переменный
Битрейт : 2848 Кбит/сек
Ширина : 720 пикселей
Высота : 576 пикселей
Соотношение сторон : 4:3
Режим частоты кадров : Постоянный
Частота кадров : 25,000 кадров/сек
Стандарт вещания : PAL
Цветовое пространство : YUV
Субдискретизация насыщенности : 4:2:0
Битовая глубина : 8 бит
Тип развёртки : Чересстрочная
Порядок развёртки : Верхнее поле первое
Метод сжатия : С потерями
Бит/(Пиксели*Кадры) : 0.275
Временной код первого кадра : 00:00:00:00
Оригинал временного кода : Group of pictures header
Размер потока : 2,19 Гбайт (92%)
Default : Да
Forced : Нет
Аудио
Идентификатор : 2
Формат : MPEG Audio
Версия формата : Version 1
Профиль формата : Layer 2
Идентификатор кодека : A_MPEG/L2
Идентификатор кодека/Подсказка : MP2
Продолжительность : 1 ч. 50 м.
Вид битрейта : Постоянный
Битрейт : 192 Кбит/сек
Каналы : 2 канала
Частота : 48,0 КГц
Метод сжатия : С потерями
Размер потока : 151 Мбайт (6%)
Язык : Russian
Default : Да
Forced : Нет

Скриншот c названием фильма

Скриншоты


Резервные скриншоты


-[2'242]
[teatrix.ru].t21012.torrent 
Торрент: Зарегистрирован [ 2016-03-20 00:55 ] · D402FEA04F29DAFF6C50A6E1DB5707ED66A22D1A

Скачать .torrent

Скачать

12 KB

Статус: проверено
Скачан: 1 раз
Размер: 2.39 GB
terms.php



Показать сообщения:    

Текущее время: 03-Дек 16:46

Часовой пояс: UTC + 3


Вы не можете начинать темы
Вы не можете отвечать на сообщения
Вы не можете редактировать свои сообщения
Вы не можете удалять свои сообщения
Вы не можете голосовать в опросах
Вы не можете прикреплять файлы к сообщениям
Вы можете скачивать файлы