Хатха Йога. Освоение Самаконасаны. Последовательность среднего уровня [2015, йога, HDRip, RUS] (Видеоурок)


Статистика раздачи [Обновить пиров]
Размер:  347 MB   |    Зарегистрирован:  8 месяцев 15 дней   |    Скачан:  0 раз

Полного источника не было: Никогда

 
   
 
 
 

[Цитировать]

Хатха Йога. Освоение Самаконасаны. Последовательность среднего уровня
Страна: Россия
Тематика: йога
Тип раздаваемого материала: Видеоурок
Продолжительность: 00:18:07
Год выпуска: 2015
orenyoga
Язык: Русский
Перевод: Не требуется
Описание: Комплекс упражнений, направленный на развитие поперечного шпагата (Самаконасаны). С помощью предложенных упражнений вы улучшите гибкость и подвижность тазобедренных суставов, вытяните заднюю поверхность ног, позвоночник и другие части тела.
Содержание: Разминка Сурья Намаскар (Приветствие Солнцу), комплекс асан.
Доп. информация: Представленный комплекс имеет средний уровень сложности, поэтому он хорошо подойдет для тех, кто уже имеет опыт практики хатха йоги.
Качество: HDRip
Формат: AVI
Видео кодек: XviD
Аудио кодек: MP3
Видео: XviD, 640х480 pixels (4:3), 2392Kbps, 25 fps
Аудио: MP3, 192 Kbps, 44.1 KHz, 2 ch

Скриншоты

MediaInfo

Общее
Полное имя : F:\Хатха Йога. Освоение Самаконасаны. Последовательность среднего уровня.avi
Формат : AVI
Формат/Информация : Audio Video Interleave
Размер файла : 347 MiB
Продолжительность : 18 мин. 7 с.
Видео
Формат : MPEG-4 Visual
Профиль формата : Advanced Simple@L4
Параметр матрицы формата : Default (H.263)
Идентификатор кодека : XVID
Битрейт : 2392 Кбит/сек
Ширина : 640 пикселей
Высота : 480 пикселей
Соотношение сторон : 4:3
Частота кадров : 25,000 кадров/сек
Цветовое пространство : YUV
Субдискретизация насыщенности : 4:2:0
Битовая глубина : 8 бит
Тип развёртки : Прогрессивная
Метод сжатия : С потерями
Бит/(Пиксели*Кадры) : 0.311
Размер потока : 310 MiB (89%)
Аудио
Формат : MPEG Audio
Идентификатор кодека : MP3
Вид битрейта : Постоянный
Битрейт : 192 Кбит/сек
Каналы : 2 канала
Частота : 44,1 КГц
Размер потока : 24.9 MiB (7%)

MediaInfo источника

Format: Windows Media
Overall bit rate: 3 160 Kbps
Maximum Overall bit rate: 3 173 Kbps
Video
Format: VC-1
Format profile: MP@ML
Codec ID: WMV3
Codec ID/Info: Windows Media Video 9
Bit rate mode: Constant
Bit rate: 3 050 Kbps
Width: 640 pixels
Height: 480 pixels
Display aspect ratio: 4:3
Frame rate: 25.000 fps
Bit depth: 8 bits
Audio
Format: WMA
Codec ID/Info: Windows Media Audio
Description of the codec: Windows Media Audio 9.2 - 320 kbps, 44 kHz, stereo (A/V) 1-pass CBR
Bit rate: 320 Kbps
Channel(s): 2 channels
Sampling rate: 44.1 KHz
Bit depth: 16 bits
[teatrix.ru].t21013.torrent 
Торрент: Зарегистрирован [ 2016-03-20 00:55 ] · F963CA256F7C73DC99992DD1A62DF769E1A78BD2

Скачать .torrent

Скачать

14 KB

Статус: проверено
Скачан: 0 раз
Размер: 347 MB
terms.php



Быстрый ответ

Имя:

      
Для отправки сообщений необходимо включить JavaScript
Показать сообщения:    

Текущее время: 04-Дек 02:50

Часовой пояс: UTC + 3


Вы можете начинать темы
Вы можете отвечать на сообщения
Вы не можете редактировать свои сообщения
Вы не можете удалять свои сообщения
Вы не можете голосовать в опросах
Вы не можете прикреплять файлы к сообщениям
Вы можете скачивать файлы