Сирано де Бержерак (Жорж Лаводан) [2012 г., героическая комедия, TVRip] Государственный академический Малый театр


 

[Цитировать]

Сирано де Бержерак Название театра: Государственный академический Малый театр.
Год выпуска: 2012.
Жанр: героическая комедия.
Продолжительность: 02:33:31.
Режиссеры: Жорж Лаводан, Жан-Ромен Весперини.
Действующие лица и исполнители:
Сирано де Бержерак - Алексей Коновалов,
Роксана - Александра Иванова,
Кристиан де Невильет - Александр Дривень,
Граф де Гиш - Александр Ермаков,
Лебре - Василий Зотов,
Рагно - Виктор Бунаков,
Карбон де Кастель-Жалу - Олег Щигорец,
Дуэнья - Клавдия Моисеева,
Лиза - Ирина Жерякова,
Де Вальвер - Максим Хрусталев,
Монфлери - Георгий Вавилов,
Докучный - Денис Курочка,
Линьер - Григорий Скряпкин,
Пирожник - Валерия Леньшина,
Кижи - Станислав Сошников,
Брисайль - Андрей Сергеев,
Жодле - Петр Жихарев,
Голоc - Константин Юдаев,
Мушкетер - Михаил Фоменко.
Описание:
Спектакль по пьесе Эдмона Ростана "Сирано де Бержерак" в Малом театре поставил Жорж Лаводан - ведущий французский режиссер, драматург, актер и писатель. В 1986 году он сменил Патриса Шеро на посту руководителя Национального народного театра в Вилербане, который и возглавлял вместе со знаменитым Роже Планшоном до 1996 года. Последний отзывался о нем как об одном из великих режиссеров своего времени. В марте 1996 года Лаводан был назначен директором одной из самых заметных сцен Франции – "Одеон - Театр Европы", став преемником Джорджо Стрелера и Луиса Паскуале. Вместе с командой единомышленников режиссер работал с труппами России, Мексики, Уругвая, Индии и Вьетнама.
На заглавную роль режиссер выбрал Алексея Коновалова, ученика Юрия Соломина, молодого артиста, недавно пришедшего в Малый театр.

Дополнительная информация:
Страна: Россия .
Автор: Эдмон Ростан.
Перевод Елены Баевской.
Режиссер-постановщик спектакля: Жорж Лаводан.
Режиссер: Жан-Ромен Весперини.
Художник-постановщик: Жан-Пьер Верже.
Художественный руководитель театра: народный артист СССР Юрий Соломин.
Прeмьера спектакля: 16 декабря 2012 года.

О спектакле.
Релиз

Качество: TVRip
Формат: AVI
Видео: 720x400 (1.80:1), 25 fps, XviD MPEG-4 ~1139 kbps avg, 0.16 bit/pixel
Аудио: 44.100 kHz, MPEG Layer 3, 2 ch, ~128.00 kbps avg

Отчет Media Info

General
Complete name : Sirano.de.Berzherak_Malyj.teatr.2012.XviD.TVRip.fenixclub.avi
Format : AVI
Format/Info : Audio Video Interleave
File size : 1.37 GiB
Duration : 2h 33mn
Overall bit rate : 1 278 Kbps
Video
ID : 0
Format : MPEG-4 Visual
Format profile : Advanced Simple@L5
Format settings, BVOP : 2
Format settings, QPel : No
Format settings, GMC : No warppoints
Format settings, Matrix : Default (H.263)
Codec ID : XVID
Codec ID/Hint : XviD
Duration : 2h 33mn
Bit rate : 1 140 Kbps
Width : 720 pixels
Height : 400 pixels
Display aspect ratio : 16:9
Frame rate : 25.000 fps
Color space : YUV
Chroma subsampling : 4:2:0
Bit depth : 8 bits
Scan type : Progressive
Compression mode : Lossy
Bits/(Pixel*Frame) : 0.158
Stream size : 1.22 GiB (89%)
Writing library : XviD 73
Audio
ID : 1
Format : MPEG Audio
Format version : Version 1
Format profile : Layer 3
Mode : Joint stereo
Mode extension : MS Stereo
Codec ID : 55
Codec ID/Hint : MP3
Duration : 2h 33mn
Source duration : 2h 33mn
Bit rate mode : Constant
Bit rate : 128 Kbps
Channel(s) : 2 channels
Sampling rate : 44.1 KHz
Compression mode : Lossy
Stream size : 141 MiB (10%)
Alignment : Aligned on interleaves
Interleave, duration : 40 ms (1.00 video frame)
Writing library : LAME3.98.2

Скриншоты

Альтернативный хост




Показать сообщения:    

Текущее время: 03-Дек 03:19

Часовой пояс: UTC + 3


Вы не можете начинать темы
Вы не можете отвечать на сообщения
Вы не можете редактировать свои сообщения
Вы не можете удалять свои сообщения
Вы не можете голосовать в опросах
Вы не можете прикреплять файлы к сообщениям
Вы не можете скачивать файлы