(Classical) Giacinto Scelsi · Yamaon, Anahit, I Presagi, Tre Pezzi, Okanagon (Klangforum Wien, Hans Zender, Beat Furrer) · 1999, FLAC (tracks+.cue) lossless


 

[Цитировать]

Giacinto Scelsi
Yamaon / Anahit / I Presagi / Tre Pezzi / Okanagon
Жанр: classical
Страна-производитель диска: Austria(?)
Год издания диска: 1999
Лейбл: Kairos
Номер по каталогу: 0012032KAI
Дата записи: 1995–1998
Wien, Konzerthaus Wien, Mozartsaal, 1 November 1995 (Anahit, I presagi)
Wien, Schottenstift, 1997 (3 pezzi)
Wien, Casino Zögernitz, 11 February 1998 (Yamaon)
Wien, Thomas Morus Kirche, 29 April 1998 (Okanagon)

Аудиокодек: FLAC
Тип рипа: tracks+.cue
Битрейт аудио: lossless
Продолжительность: 00:57:17
Источник: скачано с what.cd
Наличие сканов в содержимом раздачи: да
Исполнители:
Klangforum Wien
Hans Zender (conductor)
Beat Furrer (direction of Okanagon)

Треклист

Yamaon (1954–58)
01. 1. Satz (3:20)
02. 2. Satz (5:00)
03. 3. Satz (3:45)

04. Anahit (1965) (13:44)
I presagi (1958)
05. 1. Satz (3:41)
06. 2. Satz (4:05)
07. 3. Satz (5:45)

Tre pezzi (1956)
08. 1. Satz (2:43)
09. 2. Satz (4:07)
10. 3. Satz (2:35)

11. Okanagon (1968) (8:33)

Лог создания рипа

Exact Audio Copy V1.0 beta 3 from 29. August 2011
EAC extraction logfile from 12. December 2013, 12:01
Klangforum Wien, Hans Zender / Yamaon, Anahit, I presagi, Tre pezzi, Okanagon
Used drive : TSSTcorpCDDVDW SN-208BB Adapter: 0 ID: 1
Read mode : Secure
Utilize accurate stream : Yes
Defeat audio cache : Yes
Make use of C2 pointers : No
Read offset correction : 6
Overread into Lead-In and Lead-Out : No
Fill up missing offset samples with silence : Yes
Delete leading and trailing silent blocks : No
Null samples used in CRC calculations : Yes
Used interface : Native Win32 interface for Win NT & 2000
Gap handling : Appended to previous track
Used output format : User Defined Encoder
Selected bitrate : 320 kBit/s
Quality : High
Add ID3 tag : No
Command line compressor : C:\Program Files (x86)\Exact Audio Copy\Flac\flac.exe
Additional command line options : -8 -V -T "ARTIST=%artist%" -T "TITLE=%title%" -T "ALBUM=%albumtitle%" -T "DATE=%year%" -T "TRACKNUMBER=%tracknr%" -T "GENRE=%genre%" -T "PERFORMER=%albuminterpret%" -T "COMPOSER=%composer%" %haslyrics%--tag-from-file=LYRICS="%lyricsfile%"%haslyrics% -T "ALBUMARTIST=%albumartist%" -T "DISCNUMBER=%cdnumber%" -T "TOTALDISCS=%totalcds%" -T "TOTALTRACKS=%numtracks%" -T "COMMENT=%comment%" %source% -o %dest%
TOC of the extracted CD
Track | Start | Length | Start sector | End sector
---------------------------------------------------------
1 | 0:00.00 | 3:19.52 | 0 | 14976
2 | 3:19.52 | 5:00.01 | 14977 | 37477
3 | 8:19.53 | 3:44.47 | 37478 | 54324
4 | 12:04.25 | 13:44.04 | 54325 | 116128
5 | 25:48.29 | 3:41.17 | 116129 | 132720
6 | 29:29.46 | 4:04.59 | 132721 | 151079
7 | 33:34.30 | 5:44.41 | 151080 | 176920
8 | 39:18.71 | 2:43.00 | 176921 | 189145
9 | 42:01.71 | 4:07.02 | 189146 | 207672
10 | 46:08.73 | 2:35.32 | 207673 | 219329
11 | 48:44.30 | 8:32.70 | 219330 | 257799
Track 1
Pre-gap length 0:00:02.00
Copy aborted
Track 2
Pre-gap length 0:00:02.60
Copy aborted
Track 3
Pre-gap length 0:00:02.60
Copy aborted
Track 4
Pre-gap length 0:00:07.60
Copy aborted
Track 5
Copy aborted
Track 6
Copy aborted
Track 7
Copy aborted
Track 8
Copy aborted
Track 9
Copy aborted
Track 10
Copy aborted
Track 11
Copy aborted
No tracks could be verified as accurate
No errors occurred
End of status report
==== Log checksum ECC5E35EFCAA6E340DDEA00DCE71B49EABF1CFF51F45AF6A2CD1767207788046 ====
------------------------------------------------------------
Exact Audio Copy V1.0 beta 3 from 29. August 2011
EAC extraction logfile from 12. December 2013, 12:38
Klangforum Wien, Hans Zender / Yamaon, Anahit, I presagi, Tre pezzi, Okanagon
Used drive : TSSTcorpCDDVDW SN-208BB Adapter: 0 ID: 1
Read mode : Secure
Utilize accurate stream : Yes
Defeat audio cache : Yes
Make use of C2 pointers : No
Read offset correction : 6
Overread into Lead-In and Lead-Out : No
Fill up missing offset samples with silence : Yes
Delete leading and trailing silent blocks : No
Null samples used in CRC calculations : Yes
Used interface : Native Win32 interface for Win NT & 2000
Gap handling : Appended to previous track
Used output format : User Defined Encoder
Selected bitrate : 320 kBit/s
Quality : High
Add ID3 tag : No
Command line compressor : C:\Program Files (x86)\Exact Audio Copy\Flac\flac.exe
Additional command line options : -8 -V -T "ARTIST=%artist%" -T "TITLE=%title%" -T "ALBUM=%albumtitle%" -T "DATE=%year%" -T "TRACKNUMBER=%tracknr%" -T "GENRE=%genre%" -T "PERFORMER=%albuminterpret%" -T "COMPOSER=%composer%" %haslyrics%--tag-from-file=LYRICS="%lyricsfile%"%haslyrics% -T "ALBUMARTIST=%albumartist%" -T "DISCNUMBER=%cdnumber%" -T "TOTALDISCS=%totalcds%" -T "TOTALTRACKS=%numtracks%" -T "COMMENT=%comment%" %source% -o %dest%
TOC of the extracted CD
Track | Start | Length | Start sector | End sector
---------------------------------------------------------
1 | 0:00.00 | 3:19.52 | 0 | 14976
2 | 3:19.52 | 5:00.01 | 14977 | 37477
3 | 8:19.53 | 3:44.47 | 37478 | 54324
4 | 12:04.25 | 13:44.04 | 54325 | 116128
5 | 25:48.29 | 3:41.17 | 116129 | 132720
6 | 29:29.46 | 4:04.59 | 132721 | 151079
7 | 33:34.30 | 5:44.41 | 151080 | 176920
8 | 39:18.71 | 2:43.00 | 176921 | 189145
9 | 42:01.71 | 4:07.02 | 189146 | 207672
10 | 46:08.73 | 2:35.32 | 207673 | 219329
11 | 48:44.30 | 8:32.70 | 219330 | 257799
Track 1
Filename D:\Flac\Giacinto Scelsi - Yamaon, Anahit, I presagi, Tre pezzi, Okanagon {Klangforum Wien, Hans Zender} (1999) [FLAC]\01 Yamaon- 1. Satz.wav
Pre-gap length 0:00:02.00
Peak level 88.3 %
Extraction speed 2.5 X
Track quality 100.0 %
Test CRC 101C6843
Copy CRC 101C6843
Accurately ripped (confidence 3) [A9F704D0] (AR v1)
Copy OK
Track 2
Filename D:\Flac\Giacinto Scelsi - Yamaon, Anahit, I presagi, Tre pezzi, Okanagon {Klangforum Wien, Hans Zender} (1999) [FLAC]\02 Yamaon- 2. Satz.wav
Pre-gap length 0:00:02.60
Peak level 88.4 %
Extraction speed 3.0 X
Track quality 100.0 %
Test CRC FC10EB41
Copy CRC FC10EB41
Accurately ripped (confidence 3) [FE8DCB6F] (AR v1)
Copy OK
Track 3
Filename D:\Flac\Giacinto Scelsi - Yamaon, Anahit, I presagi, Tre pezzi, Okanagon {Klangforum Wien, Hans Zender} (1999) [FLAC]\03 Yamaon- 3. Satz.wav
Pre-gap length 0:00:02.60
Peak level 88.4 %
Extraction speed 3.1 X
Track quality 100.0 %
Test CRC 0E88D284
Copy CRC 0E88D284
Accurately ripped (confidence 3) [5CE80F17] (AR v1)
Copy OK
Track 4
Filename D:\Flac\Giacinto Scelsi - Yamaon, Anahit, I presagi, Tre pezzi, Okanagon {Klangforum Wien, Hans Zender} (1999) [FLAC]\04 Anahit.wav
Pre-gap length 0:00:07.60
Peak level 98.8 %
Extraction speed 4.0 X
Track quality 100.0 %
Test CRC 0F4E204E
Copy CRC 0F4E204E
Accurately ripped (confidence 3) [731D2A62] (AR v1)
Copy OK
Track 5
Filename D:\Flac\Giacinto Scelsi - Yamaon, Anahit, I presagi, Tre pezzi, Okanagon {Klangforum Wien, Hans Zender} (1999) [FLAC]\05 I presagi- 1. satz.wav
Peak level 75.8 %
Extraction speed 4.0 X
Track quality 100.0 %
Test CRC 0368652D
Copy CRC 0368652D
Accurately ripped (confidence 3) [D6B61DDA] (AR v1)
Copy OK
Track 6
Filename D:\Flac\Giacinto Scelsi - Yamaon, Anahit, I presagi, Tre pezzi, Okanagon {Klangforum Wien, Hans Zender} (1999) [FLAC]\06 I presagi- 2. satz.wav
Peak level 71.6 %
Extraction speed 4.3 X
Track quality 100.0 %
Test CRC 2E2597CD
Copy CRC 2E2597CD
Accurately ripped (confidence 3) [1032E0B0] (AR v1)
Copy OK
Track 7
Filename D:\Flac\Giacinto Scelsi - Yamaon, Anahit, I presagi, Tre pezzi, Okanagon {Klangforum Wien, Hans Zender} (1999) [FLAC]\07 I presagi- 3. satz.wav
Peak level 99.8 %
Extraction speed 4.7 X
Track quality 100.0 %
Test CRC 58FA415B
Copy CRC 58FA415B
Accurately ripped (confidence 3) [3792815E] (AR v1)
Copy OK
Track 8
Filename D:\Flac\Giacinto Scelsi - Yamaon, Anahit, I presagi, Tre pezzi, Okanagon {Klangforum Wien, Hans Zender} (1999) [FLAC]\08 Tre pezzi- 1. Satz.wav
Peak level 55.2 %
Extraction speed 3.2 X
Track quality 99.9 %
Test CRC 5CFFD51A
Copy CRC 5CFFD51A
Accurately ripped (confidence 3) [92B52585] (AR v1)
Copy OK
Track 9
Filename D:\Flac\Giacinto Scelsi - Yamaon, Anahit, I presagi, Tre pezzi, Okanagon {Klangforum Wien, Hans Zender} (1999) [FLAC]\09 Tre pezzi- 2. Satz.wav
Peak level 62.2 %
Extraction speed 4.7 X
Track quality 100.0 %
Test CRC 7850B611
Copy CRC 7850B611
Accurately ripped (confidence 3) [ECF93B55] (AR v1)
Copy OK
Track 10
Filename D:\Flac\Giacinto Scelsi - Yamaon, Anahit, I presagi, Tre pezzi, Okanagon {Klangforum Wien, Hans Zender} (1999) [FLAC]\10 Tre pezzi- 3. Satz.wav
Peak level 59.5 %
Extraction speed 4.5 X
Track quality 100.0 %
Test CRC BB581B06
Copy CRC BB581B06
Accurately ripped (confidence 3) [3346CE13] (AR v1)
Copy OK
Track 11
Filename D:\Flac\Giacinto Scelsi - Yamaon, Anahit, I presagi, Tre pezzi, Okanagon {Klangforum Wien, Hans Zender} (1999) [FLAC]\11 Okanagon.wav
Peak level 99.9 %
Extraction speed 4.9 X
Track quality 99.9 %
Test CRC E9203DC6
Copy CRC E9203DC6
Accurately ripped (confidence 3) [D4C3F42B] (AR v1)
Copy OK
All tracks accurately ripped
No errors occurred
End of status report
---- CUETools DB Plugin V2.1.4
[CTDB TOCID: pDvmOUrgjLT1_gSfzCg7pRgICHs-] disk not present in database
Submit result: pDvmOUrgjLT1_gSfzCg7pRgICHs- has been uploaded
==== Log checksum 871F83BF2FE500F095543BD016843ED379ED26F6B726A316F1D2EE1252BC0075 ====

Содержание индексной карты (.CUE)

REM DATE 1999
REM DISCID 780D6D0B
REM COMMENT "ExactAudioCopy v1.0b3"
CATALOG 0000000000000
PERFORMER "Klangforum Wien, Hans Zender"
TITLE "Yamaon, Anahit, I presagi, Tre pezzi, Okanagon"
FILE "01. Yamaon (1954–58). 1. Satz.wav" WAVE
TRACK 01 AUDIO
TITLE "Yamaon (1954–58): 1. Satz"
PERFORMER "Klangforum Wien, Hans Zender"
INDEX 01 00:00:00
TRACK 02 AUDIO
TITLE "Yamaon (1954–58): 2. Satz"
PERFORMER "Klangforum Wien, Hans Zender"
INDEX 00 03:17:07
FILE "02. Yamaon (1954–58). 2. Satz.wav" WAVE
INDEX 01 00:00:00
TRACK 03 AUDIO
TITLE "Yamaon (1954–58): 3. Satz"
PERFORMER "Klangforum Wien, Hans Zender"
INDEX 00 04:57:31
FILE "03. Yamaon (1954–58). 3. Satz.wav" WAVE
INDEX 01 00:00:00
TRACK 04 AUDIO
TITLE "Anahit (1965)"
PERFORMER "Klangforum Wien, Hans Zender"
INDEX 00 03:37:02
FILE "04. Anahit (1965).wav" WAVE
INDEX 01 00:00:00
FILE "05. I presagi (1958). 1. Satz.wav" WAVE
TRACK 05 AUDIO
TITLE "I presagi (1958): 1. Satz"
PERFORMER "Klangforum Wien, Hans Zender"
INDEX 01 00:00:00
FILE "06. I presagi (1958). 2. Satz.wav" WAVE
TRACK 06 AUDIO
TITLE "I presagi (1958): 2. Satz"
PERFORMER "Klangforum Wien, Hans Zender"
INDEX 01 00:00:00
FILE "07. I presagi (1958). 3. Satz.wav" WAVE
TRACK 07 AUDIO
TITLE "I presagi (1958): 3. Satz"
PERFORMER "Klangforum Wien, Hans Zender"
INDEX 01 00:00:00
FILE "08. Tre pezzi (1956). 1. Satz.wav" WAVE
TRACK 08 AUDIO
TITLE "Tre pezzi: 1. Satz"
PERFORMER "Klangforum Wien, Hans Zender"
INDEX 01 00:00:00
FILE "09. Tre pezzi (1956). 2. Satz.wav" WAVE
TRACK 09 AUDIO
TITLE "Tre pezzi (1956): 2. Satz"
PERFORMER "Klangforum Wien, Hans Zender"
INDEX 01 00:00:00
FILE "10. Tre pezzi (1956). 3. Satz.wav" WAVE
TRACK 10 AUDIO
TITLE "Tre pezzi (1956): 3. Satz"
PERFORMER "Klangforum Wien, Hans Zender"
INDEX 01 00:00:00
FILE "11. Okanagon (1968).wav" WAVE
TRACK 11 AUDIO
TITLE "Okanagon (1968)"
PERFORMER "Klangforum Wien, Beat Furrer"
INDEX 01 00:00:00



Показать сообщения:    

Текущее время: 07-Дек 17:31

Часовой пояс: UTC + 3


Вы не можете начинать темы
Вы не можете отвечать на сообщения
Вы не можете редактировать свои сообщения
Вы не можете удалять свои сообщения
Вы не можете голосовать в опросах
Вы не можете прикреплять файлы к сообщениям
Вы не можете скачивать файлы