(Opera) Lecocq - La Figlia Di Madama Angot (Pagliughi, Salvi, Soley, Gazzera - Orchestra Sinfonica e Coro di Torino della RAl, Gallino) • Bonustracks: Lina Pagliughi (Mozart, Bellini, Donizetti, Rossini, Proch, etc) - 2007, APE (image+.cue) lossless


 

[Цитировать]

Charles Lecocq - La Figlia Di Madama Angot • Bonustracks: Lina Pagliughi
Жанр: Opera
Страна-производитель диска: Portugal
Год издания диска: 2007
Издатель (лейбл): Gala
Номер по каталогу: Gl 100.804
Дата записи: 1934-1952
Аудиокодек: APE
Тип рипа: image+.cue
Битрейт аудио: lossless
Продолжительность: 73'51+77'28
Источник: собственный рип
Наличие сканов в содержимом раздачи: да
Треклист/Исполнители:
La Figlia Di Madama Ango:
Треклист:

CD1

1. lntroduzione
2. Coro di scena
3. Strofe di Pomponnet
4. Entrata della sposa
5. Romanza di Claretta
6. Resoconto e Ripresa del Coro
7. Dialogo
8. Leggenda della madre Angot
9.. Dialogo
10. Rondo
11. Dialogo
12. Duetto
13. Dialogo
14. Coro
15. Canzone politica
16. Resoconto e Coro
17. Coro
18. Dialogo
19. Strofe
20. Dialogo
21. Romanza
22. Dialogo
23. Duetto
24. Dialogo
25. Quintetto
26. Dialogo
27. Coro dei conspirateur
28. Scena
29. Valzer

CD2

1. Intervallo
2. Dialogo
3. Coro
4. Strofe
5. Dialogo
6. Coro
7. Dialogo
8. Duetto
9. Dialogo
10. Duetto delle lettere
11. Strofe della discussione
12. Finale
Charles Lecocq (1832-1918) - La Figlia Di Madama Angot
Opera comica in tre atti
Libretto: ClairviIle, Siraudin & Koning
Lina Pagliughi as Claretta Angot
Giuseppina Salvi
Tommaso Soley
Giovanni Gazzera
The rest ofthe cast is unknown
Orchestra Sinfonica e Coro di Torino della RAl
Cesare Gallino
Turin, January 24, 1952Bonustracks: Lina Pagliughi:
WOLFGANG AMADEUS MOZART - IL RATTO DAL SERRAGLIO, Act 2
13. No.II Aria: Che pur aspre al core
Orchestra Sinfonica e Coro di Torino della RAl
Armando Rosa La Parodi
Turin
WOLFGANG AMADEUS MOZART - Cosi FAN TUTIE, Act 1, Scena Terza
14. Come scoglio immoto resta
Orchestra Sinfonica e Coro di Torino della RAl
Ugo Tansini
Turin, 1934
VlNCENZO BELLlNI - NORMA, Act 1
15. Cavatina: Casta Diva!
Orchestra Sinfonica e Coro di Torino della RAl
Ugo Tansini
Turin
GAETANO DONIZETTI - LINDA DI CHAMOUNIX, Act 1, Scena Terza
16. Recitativo: Ah! Tardai troppo / Cavatina: 0 luce di quest'anima
Scena Quarta
17. Linda!. .. Linda! / Duetto: Da quel di che t'incontrai
Act 2, Scena Settima
18. Linda! ... A che pensate? / No, non è ver ... Mentirono
Orchestra Sinfonica e Coro di Torino della RAl
Ugo Tansini
Turin, 1934
GIOACCHINO ROSSINI - IL BARBIERE DI SIVIGLIA, Act 1
19. Cavatina: Una voce poco fa
Orchestra Sinfonica e Cara di Torino della RAl
Ugo Tansini
Turin, 1934
HEINRICH PROCH
20. Tema e Variazione: Oeh toma rnio bene
Orchestra Sinfonica e Coro di Torino della RAl
Ugo Tansini
Turin
LÉO DELIBES - LAKMÉ, Act 2
21. No.10 Bell Song: Dov'e l'indiana bruna
Orchestra Sinfonica e Cara di Torino della RAl
Maria Rossi
Turin, 1949
PIETRO MASCAGNI - LODOLETTA, Act 3
22. Flammen, perdonami! Non pianger piu!
Orchestra Sinfonica e Cara di Torino della RAl
Ugo Tansini
Turin, 1941
BRANZI
23. La mia canzone
Orchestra Sinfonica e Cara di Torino della RA!
Ugo Tansini
Turin

Лог создания рипа

CD1

Exact Audio Copy V1.0 beta 3 from 29. August 2011
EAC extraction logfile from 30. December 2014, 12:11
Lecocq / La Figlia Di Madama Angot, Gallino CD1
Used drive : TSSTcorpCDDVDW SE-208AB Adapter: 1 ID: 0
Read mode : Secure
Utilize accurate stream : Yes
Defeat audio cache : Yes
Make use of C2 pointers : No
Read offset correction : 6
Overread into Lead-In and Lead-Out : No
Fill up missing offset samples with silence : Yes
Delete leading and trailing silent blocks : No
Null samples used in CRC calculations : Yes
Used interface : Native Win32 interface for Win NT & 2000
Used output format : Monkey's Audio Lossless Encoder
Selected bitrate : High Lossless Compression
Quality : High
Add ID3 tag : Yes
Command line compressor : C:\Program Files (x86)\Exact Audio Copy\MAC\MAC.exe
TOC of the extracted CD
Track | Start | Length | Start sector | End sector
---------------------------------------------------------
1 | 0:00.00 | 5:01.54 | 0 | 22628
2 | 5:01.54 | 1:47.69 | 22629 | 30722
3 | 6:49.48 | 1:24.25 | 30723 | 37047
4 | 8:13.73 | 1:28.01 | 37048 | 43648
5 | 9:41.74 | 1:28.73 | 43649 | 50321
6 | 11:10.72 | 1:10.55 | 50322 | 55626
7 | 12:21.52 | 1:30.66 | 55627 | 62442
8 | 13:52.43 | 2:15.12 | 62443 | 72579
9 | 16:07.55 | 1:24.09 | 72580 | 78888
10 | 17:31.64 | 2:06.45 | 78889 | 88383
11 | 19:38.34 | 0:54.32 | 88384 | 92465
12 | 20:32.66 | 4:05.66 | 92466 | 110906
13 | 24:38.57 | 4:53.10 | 110907 | 132891
14 | 29:31.67 | 2:11.70 | 132892 | 142786
15 | 31:43.62 | 2:10.00 | 142787 | 152536
16 | 33:53.62 | 1:39.54 | 152537 | 160015
17 | 35:33.41 | 1:36.57 | 160016 | 167272
18 | 37:10.23 | 1:25.30 | 167273 | 173677
19 | 38:35.53 | 1:42.37 | 173678 | 181364
20 | 40:18.15 | 1:23.09 | 181365 | 187598
21 | 41:41.24 | 1:11.03 | 187599 | 192926
22 | 42:52.27 | 3:08.48 | 192927 | 207074
23 | 46:01.00 | 5:32.53 | 207075 | 232027
24 | 51:33.53 | 3:32.36 | 232028 | 247963
25 | 55:06.14 | 3:17.27 | 247964 | 262765
26 | 58:23.41 | 3:57.53 | 262766 | 280593
27 | 62:21.19 | 1:38.08 | 280594 | 287951
28 | 63:59.27 | 5:05.29 | 287952 | 310855
29 | 69:04.56 | 4:46.39 | 310856 | 332344
Range status and errors
Selected range
Filename D:\EAC\Lecocq - La Figlia Di Madama Angot, Gallino CD1.wav
Peak level 99.7 %
Extraction speed 4.9 X
Range quality 99.9 %
Test CRC B426FDBA
Copy CRC B426FDBA
Copy OK
No errors occurred
AccurateRip summary
Track 1 accurately ripped (confidence 1) [199AD7C0] (AR v1)
Track 2 accurately ripped (confidence 1) [0771E890] (AR v1)
Track 3 accurately ripped (confidence 1) [C2806DEA] (AR v1)
Track 4 accurately ripped (confidence 1) [9E1CB15A] (AR v1)
Track 5 accurately ripped (confidence 1) [EAA17829] (AR v1)
Track 6 accurately ripped (confidence 1) [371110EB] (AR v1)
Track 7 accurately ripped (confidence 1) [5312835E] (AR v1)
Track 8 accurately ripped (confidence 1) [2ACD1BB5] (AR v1)
Track 9 accurately ripped (confidence 1) [BC134488] (AR v1)
Track 10 accurately ripped (confidence 1) [463F6D4D] (AR v1)
Track 11 accurately ripped (confidence 1) [19770FD8] (AR v1)
Track 12 accurately ripped (confidence 1) [2F874CB7] (AR v1)
Track 13 accurately ripped (confidence 1) [BB55D761] (AR v1)
Track 14 accurately ripped (confidence 1) [CD998263] (AR v1)
Track 15 accurately ripped (confidence 1) [C36FDF51] (AR v1)
Track 16 accurately ripped (confidence 1) [1B0B8ADC] (AR v1)
Track 17 accurately ripped (confidence 1) [344BE36E] (AR v1)
Track 18 accurately ripped (confidence 1) [99E9BDF2] (AR v1)
Track 19 accurately ripped (confidence 1) [5E321B87] (AR v1)
Track 20 accurately ripped (confidence 1) [D127583A] (AR v1)
Track 21 accurately ripped (confidence 1) [3727D5F7] (AR v1)
Track 22 accurately ripped (confidence 1) [CD865E3C] (AR v1)
Track 23 accurately ripped (confidence 1) [EEEABD14] (AR v1)
Track 24 accurately ripped (confidence 1) [AA08FEB9] (AR v1)
Track 25 accurately ripped (confidence 1) [D407B105] (AR v1)
Track 26 accurately ripped (confidence 1) [4EACD5F8] (AR v1)
Track 27 accurately ripped (confidence 1) [5419F8E8] (AR v1)
Track 28 accurately ripped (confidence 1) [1E7FD19B] (AR v1)
Track 29 accurately ripped (confidence 1) [746ED309] (AR v1)
All tracks accurately ripped
End of status report
---- CUETools DB Plugin V2.1.3
[CTDB TOCID: hjeYvigJnnS7UNpdcVbnWxKoZUo-] found, Submit result: hjeYvigJnnS7UNpdcVbnWxKoZUo- has been confirmed
[ca78877a] (2/2) Accurately ripped
==== Log checksum 15A49B12BC4FD5B9DE5311EF953775C7577791E5284D661D08D59DC5B65587E4 ====

CD2

Exact Audio Copy V1.0 beta 3 from 29. August 2011
EAC extraction logfile from 30. December 2014, 12:27
Lecocq / La Figlia Di Madama Angot, Gallino CD2
Used drive : TS8XDVDSTRANSCEND Adapter: 1 ID: 1
Read mode : Secure
Utilize accurate stream : Yes
Defeat audio cache : Yes
Make use of C2 pointers : No
Read offset correction : 6
Overread into Lead-In and Lead-Out : No
Fill up missing offset samples with silence : Yes
Delete leading and trailing silent blocks : No
Null samples used in CRC calculations : Yes
Used interface : Native Win32 interface for Win NT & 2000
Used output format : Monkey's Audio Lossless Encoder
Selected bitrate : High Lossless Compression
Quality : High
Add ID3 tag : Yes
Command line compressor : C:\Program Files (x86)\Exact Audio Copy\MAC\MAC.exe
TOC of the extracted CD
Track | Start | Length | Start sector | End sector
---------------------------------------------------------
1 | 0:00.00 | 1:08.59 | 0 | 5158
2 | 1:08.59 | 0:06.34 | 5159 | 5642
3 | 1:15.18 | 1:03.30 | 5643 | 10397
4 | 2:18.48 | 2:43.06 | 10398 | 22628
5 | 5:01.54 | 1:11.60 | 22629 | 28013
6 | 6:13.39 | 0:19.68 | 28014 | 29506
7 | 6:33.32 | 1:50.26 | 29507 | 37782
8 | 8:23.58 | 3:15.71 | 37783 | 52478
9 | 11:39.54 | 1:29.19 | 52479 | 59172
10 | 13:08.73 | 3:46.27 | 59173 | 76149
11 | 16:55.25 | 4:28.74 | 76150 | 96323
12 | 21:24.24 | 2:07.28 | 96324 | 105876
13 | 23:31.52 | 4:33.45 | 105877 | 126396
14 | 28:05.22 | 4:08.08 | 126397 | 145004
15 | 32:13.30 | 6:23.17 | 145005 | 173746
16 | 38:36.47 | 4:43.53 | 173747 | 195024
17 | 43:20.25 | 7:51.59 | 195025 | 230408
18 | 51:12.09 | 4:05.62 | 230409 | 248845
19 | 55:17.71 | 4:24.64 | 248846 | 268709
20 | 59:42.60 | 4:34.10 | 268710 | 289269
21 | 64:16.70 | 5:45.35 | 289270 | 315179
22 | 70:02.30 | 4:32.67 | 315180 | 335646
23 | 74:35.22 | 2:53.23 | 335647 | 348644
Range status and errors
Selected range
Filename D:\EAC\Lecocq - La Figlia Di Madama Angot, Gallino CD2.wav
Peak level 100.0 %
Extraction speed 3.4 X
Range quality 100.0 %
Test CRC 2951545B
Copy CRC 2951545B
Copy OK
No errors occurred
AccurateRip summary
Track 1 accurately ripped (confidence 1) [723E4BBC] (AR v1)
Track 2 accurately ripped (confidence 1) [93A7B1CB] (AR v1)
Track 3 accurately ripped (confidence 1) [9CEB4A2D] (AR v1)
Track 4 accurately ripped (confidence 1) [4A7BF9F3] (AR v1)
Track 5 accurately ripped (confidence 1) [318020AC] (AR v1)
Track 6 accurately ripped (confidence 1) [96C89F14] (AR v1)
Track 7 accurately ripped (confidence 1) [2963723E] (AR v1)
Track 8 accurately ripped (confidence 1) [F397EF68] (AR v1)
Track 9 accurately ripped (confidence 1) [C974B4B7] (AR v1)
Track 10 accurately ripped (confidence 1) [F7BC5F76] (AR v1)
Track 11 accurately ripped (confidence 1) [5BA257D9] (AR v1)
Track 12 accurately ripped (confidence 1) [9291119C] (AR v1)
Track 13 accurately ripped (confidence 1) [870DCF22] (AR v1)
Track 14 accurately ripped (confidence 1) [0BBA6071] (AR v1)
Track 15 accurately ripped (confidence 1) [9C37C65A] (AR v1)
Track 16 accurately ripped (confidence 1) [753CBB11] (AR v1)
Track 17 accurately ripped (confidence 1) [6B3CD6B2] (AR v1)
Track 18 accurately ripped (confidence 1) [B30D85A3] (AR v1)
Track 19 accurately ripped (confidence 1) [E9A49E86] (AR v1)
Track 20 accurately ripped (confidence 1) [502C8C73] (AR v1)
Track 21 accurately ripped (confidence 1) [1BB60487] (AR v1)
Track 22 accurately ripped (confidence 1) [FE081955] (AR v1)
Track 23 accurately ripped (confidence 1) [B9AE6C2F] (AR v1)
All tracks accurately ripped
End of status report
---- CUETools DB Plugin V2.1.3
[CTDB TOCID: nSCL7qTDhTtnjAGzO8utjyjeFjA-] found, Submit result: unrecognized or virtual drive
[14c3b47a] (2/2) Accurately ripped
==== Log checksum 7A5D47AB520617C94957136FED4B7A0536D882BD4134D0343004D47B2A5A7B92 ====

Содержание индексной карты (.CUE)

CD1

REM GENRE Opera
REM DATE 1952
REM DISCID 7D114F1D
REM COMMENT "ExactAudioCopy v1.0b3"
PERFORMER "Lecocq"
TITLE "La Figlia Di Madama Angot, Gallino CD1"
FILE "Lecocq - La Figlia Di Madama Angot, Gallino CD1.ape" WAVE
TRACK 01 AUDIO
TITLE "lntroduzione "
PERFORMER "Lecocq"
INDEX 01 00:00:00
TRACK 02 AUDIO
TITLE "Coro di scena"
PERFORMER "Lecocq"
INDEX 01 05:01:54
TRACK 03 AUDIO
TITLE "Strofe di Pomponnet"
PERFORMER "Lecocq"
INDEX 01 06:49:48
TRACK 04 AUDIO
TITLE "Entrata della sposa"
PERFORMER "Lecocq"
INDEX 01 08:13:73
TRACK 05 AUDIO
TITLE "Romanza di Claretta"
PERFORMER "Lecocq"
INDEX 01 09:41:74
TRACK 06 AUDIO
TITLE "Resoconto e Ripresa del Coro"
PERFORMER "Lecocq"
INDEX 01 11:10:72
TRACK 07 AUDIO
TITLE "Dialogo"
PERFORMER "Lecocq"
INDEX 01 12:21:52
TRACK 08 AUDIO
TITLE "Leggenda della madre Angot"
PERFORMER "Lecocq"
INDEX 01 13:52:43
TRACK 09 AUDIO
TITLE "Dialogo"
PERFORMER "Lecocq"
INDEX 01 16:07:55
TRACK 10 AUDIO
TITLE "Rondo"
PERFORMER "Lecocq"
INDEX 01 17:31:64
TRACK 11 AUDIO
TITLE "Dialogo"
PERFORMER "Lecocq"
INDEX 01 19:38:34
TRACK 12 AUDIO
TITLE "Duetto"
PERFORMER "Lecocq"
INDEX 01 20:32:66
TRACK 13 AUDIO
TITLE "Dialogo"
PERFORMER "Lecocq"
INDEX 01 24:38:57
TRACK 14 AUDIO
TITLE "Coro "
PERFORMER "Lecocq"
INDEX 01 29:31:67
TRACK 15 AUDIO
TITLE "Canzone politica"
PERFORMER "Lecocq"
INDEX 01 31:43:62
TRACK 16 AUDIO
TITLE "Resoconto e Coro"
PERFORMER "Lecocq"
INDEX 01 33:53:62
TRACK 17 AUDIO
TITLE "Coro "
PERFORMER "Lecocq"
INDEX 01 35:33:41
TRACK 18 AUDIO
TITLE "Dialogo"
PERFORMER "Lecocq"
INDEX 01 37:10:23
TRACK 19 AUDIO
TITLE "Strofe "
PERFORMER "Lecocq"
INDEX 01 38:35:53
TRACK 20 AUDIO
TITLE "Dialogo"
PERFORMER "Lecocq"
INDEX 01 40:18:15
TRACK 21 AUDIO
TITLE "Romanza"
PERFORMER "Lecocq"
INDEX 01 41:41:24
TRACK 22 AUDIO
TITLE "Dialogo"
PERFORMER "Lecocq"
INDEX 01 42:52:27
TRACK 23 AUDIO
TITLE "Duetto"
PERFORMER "Lecocq"
INDEX 01 46:01:00
TRACK 24 AUDIO
TITLE "Dialogo"
PERFORMER "Lecocq"
INDEX 01 51:33:53
TRACK 25 AUDIO
TITLE "Quintetto"
PERFORMER "Lecocq"
INDEX 01 55:06:14
TRACK 26 AUDIO
TITLE "Dialogo"
PERFORMER "Lecocq"
INDEX 01 58:23:41
TRACK 27 AUDIO
TITLE "Coro dei conspirateur"
PERFORMER "Lecocq"
INDEX 01 62:21:19
TRACK 28 AUDIO
TITLE "Scena"
PERFORMER "Lecocq"
INDEX 01 63:59:27
TRACK 29 AUDIO
TITLE "Valzer"
PERFORMER "Lecocq"
INDEX 01 69:04:56

CD2

REM ACCURATERIPID 0030eb81-037f5ce3-32122817
REM COMMENT "CUETools generated dummy CUE sheet"
PERFORMER "Lecocq"
TITLE "La Figlia Di Madama Angot, Gallino CD2"
REM DATE 1952
REM GENRE "Opera"
FILE "Lecocq - La Figlia Di Madama Angot, Gallino CD2.ape" WAVE
TRACK 01 AUDIO
PERFORMER "Lecocq"
TITLE "Intervallo"
INDEX 01 00:00:00
TRACK 02 AUDIO
PERFORMER "Lecocq"
TITLE "Dialogo"
INDEX 01 01:08:59
TRACK 03 AUDIO
PERFORMER "Lecocq"
TITLE "Coro"
INDEX 01 01:15:18
TRACK 04 AUDIO
PERFORMER "Lecocq"
TITLE "Strofe"
INDEX 01 02:18:48
TRACK 05 AUDIO
PERFORMER "Lecocq"
TITLE "Dialogo"
INDEX 01 05:01:54
TRACK 06 AUDIO
PERFORMER "Lecocq"
TITLE "Coro"
INDEX 01 06:13:39
TRACK 07 AUDIO
PERFORMER "Lecocq"
TITLE "Dialogo"
INDEX 01 06:33:32
TRACK 08 AUDIO
PERFORMER "Lecocq"
TITLE "Duetto"
INDEX 01 08:23:58
TRACK 09 AUDIO
PERFORMER "Lecocq"
TITLE "Dialogo"
INDEX 01 11:39:54
TRACK 10 AUDIO
PERFORMER "Lecocq"
TITLE "Duetto delle lettere"
INDEX 01 13:08:73
TRACK 11 AUDIO
PERFORMER "Lecocq"
TITLE "Strofe della discussione"
INDEX 01 16:55:25
TRACK 12 AUDIO
PERFORMER "Lecocq"
TITLE "Finale"
INDEX 01 21:24:24
TRACK 13 AUDIO
PERFORMER "Mozart: Il ratto dal Serraglio"
TITLE "No.II Aria: Che pur aspre al core"
INDEX 01 23:31:52
TRACK 14 AUDIO
PERFORMER "Mozart: cosi fan tutie"
TITLE "Come scoglio immoto resta"
INDEX 01 28:05:22
TRACK 15 AUDIO
PERFORMER "Bellini: Norma"
TITLE "Cavatina: Casta Diva! "
INDEX 01 32:13:30
TRACK 16 AUDIO
PERFORMER "Donizetti: Linda di Chamounix"
TITLE "Recitativo: Ah! Tardai troppo / Cavatina: 0 luce di quest'anima "
INDEX 01 38:36:47
TRACK 17 AUDIO
PERFORMER "Donizetti: Linda di Chamounix"
TITLE "Linda!. .. Linda! / Duetto: Da quel di che t'incontrai"
INDEX 01 43:20:25
TRACK 18 AUDIO
PERFORMER "Donizetti: Linda di Chamounix"
TITLE "Linda! ... A che pensate? / No, non è ver ... Mentirono"
INDEX 01 51:12:09
TRACK 19 AUDIO
PERFORMER "Rossini: Il barbiere di Siviglia"
TITLE "Cavatina: Una voce poco fa"
INDEX 01 55:17:71
TRACK 20 AUDIO
PERFORMER "Proch"
TITLE "Tema e Variazione: Oeh toma rnio bene "
INDEX 01 59:42:60
TRACK 21 AUDIO
PERFORMER "Delibes: Lakmé"
TITLE "No.10 Bell Song: Dov'e l'indiana bruna"
INDEX 01 64:16:70
TRACK 22 AUDIO
PERFORMER "Mascagni: Lodoletta"
TITLE "Flammen, perdonami! Non pianger piu!"
INDEX 01 70:02:30
TRACK 23 AUDIO
PERFORMER "Branzi"
TITLE "La mia canzone "
INDEX 01 74:35:22



Показать сообщения:    

Текущее время: 02-Дек 23:08

Часовой пояс: UTC + 3


Вы не можете начинать темы
Вы не можете отвечать на сообщения
Вы не можете редактировать свои сообщения
Вы не можете удалять свои сообщения
Вы не можете голосовать в опросах
Вы не можете прикреплять файлы к сообщениям
Вы не можете скачивать файлы