[TR24][SM][OF] Carl Nielsen - Symphonies Nos 4 & 5 - Sir Colin Davis & London Symphony Orchestra - 2011 (Classical)


Статистика раздачи [Обновить пиров]
Размер:  1.34 GB   |    Зарегистрирован:  8 месяцев 18 дней   |    Скачан:  0 раз

Полного источника не было: Никогда

 
   
 
 
 

[Цитировать]

·
·Carl August Nielsen (1865 - 1931)Жанр: Symphony
Носитель: Official Digital Download
Год издания диска: 2011
Издатель(лейбл): © LSO Live
Номер по каталогу: LSO0694
Продолжительность: 01:06:38
Наличие сканов в содержимом раздачи: booklet, inlay, sleeve
Контейнер: FLAC (*.flac)
Разрядность: 24/96
Количество каналов: 2.0
Формат: tracks
Источник: hyperion-records.co.uk
Pелизер: WEB (thanks to the original customer)
Sir Colin Davis
London Symphony Orchestra

Треклист

Symphony No. 4 “The Inextinguishable” Op. 29 (1914–16)01 i. Allegro 9’56’’
02 ii. Poco allegretto 4’31’’
03 iii. Allegretto un poco 8’37’’
04 iv. Finale: Allegro 8’17’’
Symphony No. 5 Op. 50 (1920–22)
05 i. I. Tempo giusto – 10’41’’
06 ii. I. Adagio non troppo 10’16’’
07 iii. II. Allegro – Presto – Andante poco tranquillo – Allegro (Tempo I) 14’20’’

Dynamic Range Meter

foobar2000 1.2.6 / Dynamic Range Meter 1.1.1
log date: 2015-04-25 23:29:04
--------------------------------------------------------------------------------
Analyzed: Sir Colin Davis, London Symphony Orchestra / Nielsen: Symphonies Nos 4 & 5
--------------------------------------------------------------------------------
DR Peak RMS Duration Track
--------------------------------------------------------------------------------
DR15 -0.88 dB -21.41 dB 9:55 01-Symphony No. 4 - I. Allegro
DR13 -20.23 dB -39.34 dB 4:31 02-Symphony No. 4 - II. Poco allegretto
DR16 -0.40 dB -23.73 dB 8:36 03-Symphony No. 4 - III. Poco adagio quasi andante
DR14 0.00 dB -19.21 dB 8:11 04-Symphony No. 4 - IV. Allegro
DR15 -4.15 dB -27.00 dB 10:43 05-Symphony No. 5 - I. a. Tempo giusto
DR14 -0.75 dB -20.25 dB 10:16 06-Symphony No. 5 - I. b. Adagio non troppo
DR15 0.00 dB -20.28 dB 14:21 07-Symphony No. 5 - II. Allegro - Presto - Andante poco tranquillo - Allegro (Tempo I)
--------------------------------------------------------------------------------
Number of tracks: 7
Official DR value: DR15
Samplerate: 96000 Hz
Channels: 2
Bits per sample: 24
Bitrate: 2940 kbps
Codec: FLAC
================================================================================
[teatrix.ru].t21020.torrent 
Торрент: Зарегистрирован [ 2016-03-20 00:55 ] · E23C89CCD6E92C291512B0E86FFD3CDFDDEE210C

Скачать .torrent

Скачать

15 KB

Статус: проверено
Скачан: 0 раз
Размер: 1.34 GB
terms.php



Быстрый ответ

Имя:

      
Для отправки сообщений необходимо включить JavaScript
Показать сообщения:    

Текущее время: 07-Дек 17:30

Часовой пояс: UTC + 3


Вы можете начинать темы
Вы можете отвечать на сообщения
Вы не можете редактировать свои сообщения
Вы не можете удалять свои сообщения
Вы не можете голосовать в опросах
Вы не можете прикреплять файлы к сообщениям
Вы можете скачивать файлы