Президент (Саида Медведева) [2015, документальный, SATRip]


Статистика раздачи [Обновить пиров]
Размер:  2.11 GB   |    Зарегистрирован:  8 месяцев 17 дней   |    Скачан:  0 раз

Полного источника не было: Никогда

 
   
 
 
 

[Цитировать]

Президент
Дата/Год выпуска: 2015
Страна: Россия
Жанр: документальный
Продолжительность: 01:06:05 + 00:45:01 + 00:39:52
Перевод: Не требуется
Русские субтитры: нет
Режиссер: Саида Медведева
Оригинальная аудиодорожка: русский
Телеканал: Россия 1
Описание: Фильм-интервью приурочен к 15-летию пребывания у власти Владимира Путина.
Картина охватывает период с августа 1999 года до сегодняшних дней и повествует о пути, который страна вместе с Президентом прошла за последние 15 лет.
Владимир Путин вспоминает о самых драматических моментах современной российской истории – войне в Чечне, гибели экипажа подводной лодки "Курск", теракте на Дубровке, Крыме…
Рассказ самого Президента, интервью с представителями политических и бизнес-элит страны, документальная хроника, уникальная съемка личных операторов Владимира Путина воссоздают и раскрывают подробности минувшего времени, повествуя о том, как менялось отношение к России и ее лидеру в стране и мире.
Экономические кризисы 2008 и 2014 года, Олимпиада в Сочи, формирование оппозиции, Болотная площадь и проспект Сахарова, Майдан…
Отвечая на вопросы Владимира Соловьева, Владимир Путин рассказывает о поворотных моментах большой политики, которые решали судьбу мира, и о том, куда Президент ведет Россию сегодня.
Релиз: Рипер Ам.
качество: SATRip
формат: AVI
Видео: 720x400 (1.80:1), 25 fps, XviD build 50 ~1799 kbps avg, 0.25 bit/pixel
Аудио: 48 kHz, AC3 Dolby Digital, 2/0 (L,R) ch, ~192 kbps

MediaInfo

Формат                                   : AVI
Формат/Информация : Audio Video Interleave
Размер файла : 946 Мбайт
Продолжительность : 1 ч. 6 м.
Общий поток : 2002 Кбит/сек
Программа кодирования : VirtualDubMod 1.5.10.3 | www.virtualdub-fr.org || (build 2550/release)
Библиотека кодирования : VirtualDubMod build 2550/release
Видео
Идентификатор : 0
Формат : MPEG-4 Visual
Профиль формата : Advanced Simple@L5
Параметр BVOP формата : 2
Параметр QPel формата : Нет
Параметр GMC формата : Без точки перехода
Параметр матрицы формата : Default (H.263)
Идентификатор кодека : XVID
Идентификатор кодека/Подсказка : XviD
Продолжительность : 1 ч. 6 м.
Битрейт : 1800 Кбит/сек
Ширина : 720 пикселей
Высота : 400 пикселей
Соотношение сторон : 16:9
Частота кадров : 25,000 кадров/сек
Цветовое пространство : YUV
Субдискретизация насыщенности : 4:2:0
Битовая глубина : 8 бит
Тип развёртки : Прогрессивная
Метод сжатия : С потерями
Бит/(Пиксели*Кадры) : 0.250
Размер потока : 851 Мбайт (90%)
Библиотека кодирования : XviD 1.2.1 (UTC 2008-12-04)
Аудио
Идентификатор : 1
Формат : AC-3
Формат/Информация : Audio Coding 3
Расширение режима : CM (complete main)
Параметр Endianness формата : Big
Идентификатор кодека : 2000
Продолжительность : 1 ч. 6 м.
Вид битрейта : Постоянный
Битрейт : 192 Кбит/сек
Каналы : 2 канала
Расположение каналов : Front: L R
Частота : 48,0 КГц
Битовая глубина : 16 бит
Метод сжатия : С потерями
Размер потока : 90,8 Мбайт (10%)
Выравнивание : Разделение по промежуткам
Продолжительность промежутка : 40 мс. (1,00 видеокадр)
Время предзагрузки промежутка : 500 мс.

Скриншоты


-
Сообщения из этой темы [40 шт.] были выделены в отдельную тему Выделено из: Президент [2015, документальный, SATRip] [4994524]
doc_ravik
[teatrix.ru].t21024.torrent 
Торрент: Зарегистрирован [ 2016-03-20 00:55 ] · F42F6FCC653960CE7BEDF5AE47AF59A0AC31BF35

Скачать .torrent

Скачать

11 KB

Статус: проверено
Скачан: 0 раз
Размер: 2.11 GB
terms.php



Быстрый ответ

Имя:

      
Для отправки сообщений необходимо включить JavaScript
Показать сообщения:    

Текущее время: 06-Дек 19:00

Часовой пояс: UTC + 3


Вы можете начинать темы
Вы можете отвечать на сообщения
Вы не можете редактировать свои сообщения
Вы не можете удалять свои сообщения
Вы не можете голосовать в опросах
Вы не можете прикреплять файлы к сообщениям
Вы можете скачивать файлы