(Classical) Ottorino Respighi - Impressioni brasiliane; La Boutique fantasque - Orchestre Philharmonique Royal de Liege, John Neschling - 2014, FLAC (image+.cue) lossless


 

[Цитировать]

Ottorino Respighi - Impressioni brasiliane; La Boutique fantasque - Orchestre Philharmonique Royal de Liège, John Neschling
Жанр: Classical
Страна-производитель диска: Sweden
Год издания диска: 2014
Издатель (лейбл): BIS
Номер по каталогу: BIS-SACD-2050
Дата записи: 2013
Аудиокодек: FLAC
Тип рипа: image+.cue
Битрейт аудио: lossless
Продолжительность: 68:55
Источник: собственный рип
Наличие сканов в содержимом раздачи: да
Треклист:
Ottorino Respighi (1879–1936)
[1]-[3] Impressioni brasiliane (Brazilian Impressions) (1927–28)
[4]-[11] La Boutique fantasque, complete ballet score (1918)
based on music by Gioacchino Rossini
Исполнители:
Orchestre Philharmonique Royal de Liège
John Neschling
conductor

Лог создания рипа

Exact Audio Copy V1.0 beta 3 from 29. August 2011
EAC extraction logfile from 18. April 2015, 18:58
Orchestre Philharmonique Royal de Liège, John Neschling / Respighi - Impressioni brasiliane; La Boutique fantasque
Used drive : HL-DT-STDVDRAM GU70N Adapter: 0 ID: 0
Read mode : Secure
Utilize accurate stream : Yes
Defeat audio cache : Yes
Make use of C2 pointers : No
Read offset correction : 48
Overread into Lead-In and Lead-Out : No
Fill up missing offset samples with silence : Yes
Delete leading and trailing silent blocks : No
Null samples used in CRC calculations : Yes
Used interface : Native Win32 interface for Win NT & 2000
Used output format : User Defined Encoder
Selected bitrate : 128 kBit/s
Quality : High
Add ID3 tag : No
Command line compressor : C:\Program Files (x86)\Exact Audio Copy\Flac\flac.exe
Additional command line options : -V -8 -T "Date=%year%" -T "Genre=%genre%" %source%
TOC of the extracted CD
Track | Start | Length | Start sector | End sector
---------------------------------------------------------
1 | 0:00.00 | 11:40.18 | 0 | 52517
2 | 11:40.18 | 5:11.12 | 52518 | 75854
3 | 16:51.30 | 4:45.22 | 75855 | 97251
4 | 21:36.52 | 6:41.34 | 97252 | 127360
5 | 28:18.11 | 2:56.06 | 127361 | 140566
6 | 31:14.17 | 6:36.07 | 140567 | 170273
7 | 37:50.24 | 4:56.70 | 170274 | 192543
8 | 42:47.19 | 7:29.37 | 192544 | 226255
9 | 50:16.56 | 8:36.52 | 226256 | 265007
10 | 58:53.33 | 4:34.41 | 265008 | 285598
11 | 63:27.74 | 5:27.38 | 285599 | 310161
Range status and errors
Selected range
Filename C:\temp\BIS-SACD-2050 - Respighi - Impressioni brasiliane; La Boutique fantasque\Respighi - Impressioni brasiliane; La Boutique fantasque.wav
Peak level 100.0 %
Extraction speed 2.3 X
Range quality 100.0 %
Test CRC 0CBFF1C4
Copy CRC 0CBFF1C4
Copy OK
No errors occurred
AccurateRip summary
Track 1 accurately ripped (confidence 4) [498ABEF1] (AR v2)
Track 2 accurately ripped (confidence 4) [8B4906BC] (AR v2)
Track 3 accurately ripped (confidence 4) [B9C4BB66] (AR v2)
Track 4 accurately ripped (confidence 4) [D425167A] (AR v2)
Track 5 accurately ripped (confidence 4) [8950562D] (AR v2)
Track 6 accurately ripped (confidence 4) [FA3DEDBF] (AR v2)
Track 7 accurately ripped (confidence 4) [CEEB9C4B] (AR v2)
Track 8 accurately ripped (confidence 4) [1B00FB00] (AR v2)
Track 9 accurately ripped (confidence 4) [63BB884C] (AR v2)
Track 10 accurately ripped (confidence 4) [5D418033] (AR v2)
Track 11 accurately ripped (confidence 4) [2FA84E3F] (AR v2)
All tracks accurately ripped
End of status report
==== Log checksum 18A476C62986A8A858AA4469E98A437D367C8991377A5572F23BEC4CA17D5AEB ====



Показать сообщения:    

Текущее время: 09-Дек 03:04

Часовой пояс: UTC + 3


Вы не можете начинать темы
Вы не можете отвечать на сообщения
Вы не можете редактировать свои сообщения
Вы не можете удалять свои сообщения
Вы не можете голосовать в опросах
Вы не можете прикреплять файлы к сообщениям
Вы не можете скачивать файлы